Loading...
Error

Дивергент / Divergent (Нил Бёргер) [2014 г., фантастика, боевик, приключения, экранизация, BDRip] Dub + Original + Sub (Rus,Eng) HQ Underverse

Статистика раздачи
Размер:  2,17 GB   |    Зарегистрирован:  2 года 3 месяца   |    Скачан:  75 раз

Полного источника не было: 15 часов

Сидов:  0  |  0 KB/s  ]   Личеров:  0  |  0 KB/s  ]

* - сиды/пиры с внешних источников

   
 
Автор Сообщение

HQ Underverse 

20-Авг-2014 11:37

Дивергент / Divergent


Год выпуска: 2014
Жанр: фантастика, боевик, приключения, экранизация
Страна: США
Режиссер: Нил Бёргер
В ролях: Шэйлин Вудли, Тео Джеймс, Эшли Джадд, Джай Кортни, Рэй Стивенсон, Зои Кравиц, Майлз Теллер, Тони Голдуин, Мэгги Кью, Кейт Уинслет
Сюжет фильма:
Действие развивается на Земле в будущем, в деспотичном Чикаго. Все подростки, достигшие 16 лет, обязаны выбрать одну из пяти фракций и присоединиться к ней на всю оставшуюся жизнь. Каждая фракция представляет определенное качество: Искренность, Отречение, Бесстрашие, Дружелюбие и Эрудиция. Экранизация одноименного романа Вероники Рот.

  • Мировая премьера: 18 марта 2014
  • Российская премьера: 10 апреля 2014, «Централ Партнершип»

|
Качество видео: BDRip

Продолжительность: 02:19:40
Формат: avi
Видео: XviD, 720x304, 1764 kbps
Аудио #1: русский, дублированный [лицензия], AC3 5.1, 448 kbps
Аудио #2: английский, оригинал, AC3 5.1, 448 kbps (отдельным файлом: здесь)
Субтитры #1: внешние, SRT, русский
Субтитры #2: внешние, SRT, английский

Код:

General
Complete name                    : Y:\Дивергент\Divergent.2014.BDRip.XviD.AC3.Rus.D.HQ.Underverse.avi
Format                           : AVI
Format/Info                      : Audio Video Interleave
Format profile                   : OpenDML
File size                        : 2.17 GiB
Duration                         : 2h 19mn
Overall bit rate                 : 2 225 Kbps
Writing application              : VirtualDubMod 1.5.10.3 | www.virtualdub-fr.org || (build 2550/release)
Writing library                  : VirtualDubMod build 2550/release

Video
ID                               : 0
Format                           : MPEG-4 Visual
Format profile                   : Streaming Video@L1
Format settings, BVOP            : Yes
Format settings, QPel            : No
Format settings, GMC             : No warppoints
Format settings, Matrix          : Custom
Codec ID                         : XVID
Codec ID/Hint                    : XviD
Duration                         : 2h 19mn
Bit rate                         : 1 765 Kbps
Width                            : 720 pixels
Height                           : 304 pixels
Display aspect ratio             : 2.35
Frame rate                       : 23.976 fps
Resolution                       : 24 bits
Colorimetry                      : 4:2:0
Scan type                        : Progressive
Bits/(Pixel*Frame)               : 0.336
Stream size                      : 1.72 GiB (79%)
Writing library                  : XviD 64

Audio
ID                               : 1
Format                           : AC-3
Format/Info                      : Audio Coding 3
Codec ID                         : 2000
Duration                         : 2h 19mn
Bit rate mode                    : Constant
Bit rate                         : 448 Kbps
Channel(s)                       : 6 channels
Channel positions                : Front: L C R, Surround: L R, LFE
Sampling rate                    : 48.0 KHz
Stream size                      : 448 MiB (20%)
Alignment                        : Split accross interleaves
Interleave, duration             : 42 ms (1.00 video frame)
Interleave, preload duration     : 500 ms

General
Complete name                    : Y:\Дивергент\Divergent.2014.BDRip.XviD.AC3.Rus.D.HQ.Underverse.ENG.ac3
Format                           : AC-3
Format/Info                      : Audio Coding 3
File size                        : 448 MiB
Duration                         : 2h 19mn
Overall bit rate                 : 448 Kbps

Audio
Format                           : AC-3
Format/Info                      : Audio Coding 3
Duration                         : 2h 19mn
Bit rate mode                    : Constant
Bit rate                         : 448 Kbps
Channel(s)                       : 6 channels
Channel positions                : Front: L C R, Surround: L R, LFE
Sampling rate                    : 48.0 KHz
Stream size                      : 448 MiB (100%)

Релиз группы:

picpicpic
Для увеличения картинки щелкните мышкой по превью

Этот торрент недоступен для скачивания без регистрации, однако доступен по публичной magnet-ссылке (источники с публичных трекеров). Перед использованием ссылки прочтите, пожалуйста Пользовательское соглашение, а также как можно дольше оставайтесь на раздаче! Для того, чтобы скачать сам торрент-файл (который видит больше источников), а также для того, чтобы поблагодарить релизера, вам необходимо зарегистрироваться. Если регистрироваться лень - вы можете также попробовать скачать релиз по нашим партнерским ссылкам ниже.

[underverse.su].t43013.torrent
Трекер: Зарегистрирован   [ 20.08.2014 11:37 ]  

Статус: проверено (by HQ Underverse at 20.08.2014 11:38)
Поблагодарили: 7 человек
Тип торрента: публичный - доступные источники с открытых трекеров: 
Размер: 2,17 GB (занимает 1/2 DVDR, для записи нужно 1 болванка DVDR/RW)
 
 
Похожие темы
Форум Тема Автор Торрент Отв. Посл. сооб.
Зарубежное кино [DVDRip, Low-Res HDRip, и т.д.] Дивергент / Divergent (Нил Бёргер) [2014 г., Фантастика, Боевик, Триллер, BDRip-AVC] Dub (RUS, Лицензия) + Original (ENG) + Subs (RUS, ENG) Ведьмочка
3 | 0

0 | 733

21

17.08.2014 08:31

Зарубежное кино [DVDRip, Low-Res HDRip, и т.д.] Дивергент / Divergent (Нил Бёргер) [2014 г., Фантастика, Боевик, Триллер, HDRip] Dub (RUS, Лицензия) Ведьмочка
10 | 0

0 | 851

44

17.08.2014 08:43

Зарубежное кино [DVDRip, Low-Res HDRip, и т.д.] Дивергент / Divergent (Нил Бёргер / Neil Burger) [2014 г., фантастика, мелодрама, приключения, HDRip] Dub [Лицензия] Паукан
98 | 0

0 | 1410

125

18.08.2014 10:59

Зарубежное кино [DVDRip, Low-Res HDRip, и т.д.] Дивергент / Divergent (Нил Бёргер) [2014 г., фантастика, боевик, приключения, экранизация, HDRip] Dub [лицензия] Паукан
15 | 0

0 | 621

30

18.08.2014 11:04

Зарубежное кино [DVD / HDDVD / BD / Remux] Дивергент / Divergent (Нил Бёргер) [2014 г., Фантастика, Боевик, Триллер, BDRemux 1080p] Dub (RUS) Ведьмочка
1 | 0

0 | 703

13

17.08.2014 07:42

Зарубежное кино [HDDVDRip / BDRip / WEB-DL / HDTV 1080/720р] Дивергент / Divergent (Нил Бёргер) [2014 г., Фантастика, Боевик, Триллер, BDRip 720p] 2-Dub (RUS, Лицензия) + Original (ENG) + Subs (RUS, ENG) Ведьмочка
1 | 1

0 | 693

19

17.08.2014 08:09

Зарубежное кино [HDDVDRip / BDRip / WEB-DL / HDTV 1080/720р] Дивергент / Divergent (Нил Бёргер) [2014 г., фантастика, мелодрама, приключения, BDRip 720p] Dub + Original + Sub (Rus,Eng) Паукан
3 | 0

0 | 867

57

18.08.2014 11:54

Зарубежное кино [HDDVDRip / BDRip / WEB-DL / HDTV 1080/720р] Дивергент / Divergent (Нил Бёргер) [2014 г., Фантастика, Боевик, Триллер, BDRip 720p] Dub (RUS, Лицензия) + Original (ENG) + Subs (RUS, ENG) / 60 FPS Ведьмочка
1 | 0

0 | 573

21

23.09.2014 19:14


Яндекс.Метрика powered by Sphinx


В Н И М А Н И Е
Сайт не распространяет и не хранит электронные версии произведений, а лишь бесплатно и без коммерческой выгоды (не требуя взамен платы,
SMS и т.д.) предоставляет доступ к создаваемому пользователями каталогу ссылок на торрент-файлы, которые содержат только списки хеш-сумм.
Убедительная просьба с жалобами обращаться напрямую к пользователю, разместившему торрент файл.

Вверх