Loading...
Error

Мент в законе (8 сезон: 1-24 серии из 24) (Юрий Попович, Игорь Ромащенко, Давид Ройтберг) [2014 г., детектив, криминальный, SatRip]

Статистика раздачи
Размер:  14,75 GB   |    Зарегистрирован:  2 года 3 месяца   |    Скачан:  5 раз

Полного источника не было: 1 день 16 часов

Сидов:  0  |  0 KB/s  ]   Личеров:  0  |  0 KB/s  ]

* - сиды/пиры с внешних источников

   
 
Автор Сообщение

nemos Пол:Муж

17-Авг-2014 19:54



Год выпуска: 2014
Жанр: детектив, криминальный
Страна: Россия
Режиссер: Юрий Попович, Игорь Ромащенко, Давид Ройтберг
В ролях: Сергей Плотников, Михаил Бабичев, Антон Сёмкин, Сергей Пиотровский, Ирина Темичева, Ника Балина, Павел Савчук, Иван Литвинов, Василий Мичков, Андрей Рогожин, Дмитрий Косенкин, Дмитрий Артаев, Игорь Серебряный, Юлия Яблонская, Константин Глушков, Дмитрий Блохин, Иван Соловьёв, Дмитрий Варшавский, Александр Сухинин, Станислав Эвентов, Мария Портнова, Михаил Филиппов, Евгений Булдаков, Александра Панкратова, Александра Булычёва, Владимир Чуприков, Анастасия Дубровина, Эльмира Мирэль, Семён Литвинов, Иван Иванов, Денис Дружинин, Федор Румянцев, Марина Барсукова, Никита Тезов
Сюжет фильма:
Казалось, что круче уже некуда, но неутомимый и яростный борец с несправедливостью Степан Круча готов доказать обратное! В новом сезоне сериала подполковник Круча продолжает защищать жителей Битова от произвола и вседозволенности бандитского мира. Даже когда ситуация в криминальных кругах накалена до предела, Степан Степаныч способен дать достойный отпор изощренным преступникам... Авторитет Сафрон неожиданно объявляет, что теперь всеми делами в районе будет заправлять его сын Егор, что приводит в бешенство ближайшего соратника бандита, Чарлика. Пока на вершине преступного мира идет отчаянная борьба за власть, Круча и его команда должны разобраться с вереницей запутанных дел, среди которых — история расправы над владельцами модельного агентства и крупное мошенничество в сфере страхования. Расследование, которое начнется с выяснения обстоятельств рядового убийства, приведет оперативников к целой шайке опасных аферистов и обернется целым ворохом проблем – захватом заложников, смертельными погонями и очередным покушением на Сафрона... Как будут развиваться события для Степана Кручи, его подчиненных и самых близких и кто из героев не сумеет пройти проверку на прочность?

Качество видео: SatRip

Продолжительность: 00:46:01 серия
Формат: AVI
Видео: XviD, 720x448, 1800 kbps
Аудио: русский, MP3 2.0, 128 kbps

Код:

E:\Фильмы Раздача-1\Ment.v.zakone-8.2013.SATRip\Ment.v.zakone-8.Seriya.1.2013.SATRip.avi
   General
      Complete name : E:\Фильмы Раздача-1\Ment.v.zakone-8.2013.SATRip\Ment.v.zakone-8.Seriya.1.2013.SATRip.avi
      Format : AVI
      Format/Info : Audio Video Interleave
      File size : 638 MiB
      Duration : 46mn 1s
      Overall bit rate : 1 938 Kbps
      Writing application : VirtualDubMod 1.5.10.3 | www.virtualdub-fr.org || (build 2550/release)
      Writing library : VirtualDub build 32507/release
   Video #0
      ID : 0
      Format : MPEG-4 Visual
      Format profile : Advanced Simple@L5
      Format settings, BVOP : 2
      Format settings, QPel : No
      Format settings, GMC : No warppoints
      Format settings, Matrix : Default (MPEG)
      Codec ID : XVID
      Codec ID/Hint : XviD
      Duration : 46mn 1s
      Bit rate : 1 800 Kbps
      Width : 720 pixels
      Height : 448 pixels
      Display aspect ratio : 1.607
      Frame rate : 25.000 fps
      Color space : YUV
      Chroma subsampling : 4:2:0
      Bit depth : 8 bits
      Scan type : Progressive
      Compression mode : Lossy
      Bits/(Pixel*Frame) : 0.223
      Stream size : 592 MiB (93%)
      Writing library : XviD 1.2.1 (UTC 2008-12-04)
   Audio #1
      ID : 1
      Format : MPEG Audio
      Format version : Version 1
      Format profile : Layer 3
      Mode : Joint stereo
      Codec ID : 55
      Codec ID/Hint : MP3
      Duration : 46mn 1s
      Bit rate mode : Constant
      Bit rate : 128 Kbps
      Channel(s) : 2 channels
      Sampling rate : 48.0 KHz
      Compression mode : Lossy
      Stream size : 42.1 MiB (7%)
      Alignment : Aligned on interleaves
      Interleave, duration : 40 ms (1.00 video frame)
      Interleave, preload duration : 504 ms
      Writing library : LAME3.99r
      Encoding settings : -m j -V 4 -q 2 -lowpass 17 -b 128
picpicpicpicpicpicpicpicpic
Для увеличения картинки щелкните мышкой по превью

Этот торрент недоступен для скачивания без регистрации, однако доступен по публичной magnet-ссылке (источники с публичных трекеров). Перед использованием ссылки прочтите, пожалуйста Пользовательское соглашение, а также как можно дольше оставайтесь на раздаче! Для того, чтобы скачать сам торрент-файл (который видит больше источников), а также для того, чтобы поблагодарить релизера, вам необходимо зарегистрироваться. Если регистрироваться лень - вы можете также попробовать скачать релиз по нашим партнерским ссылкам ниже.

[underverse.su].t43692.torrent
Трекер: Зарегистрирован   [ 08.09.2014 02:17 ]  

Статус: проверено (by nemos at 08.09.2014 02:17)
Поблагодарили: 1 человек
Тип торрента: публичный - доступные источники с открытых трекеров: 
Размер: 14,75 GB (занимает 3,37 DVDR, для записи нужно 4 болванки DVDR/RW)
 
 
Похожие темы
Форум Тема Автор Торрент Отв. Посл. сооб.
xUSSR сериалы Мент в законе 6 / Серии: 1-24 (24) (Сергей Полянский, Евгений Сологалов) [2012, Криминал, боевик, детектив, SATRip] nemos
2 | 0

3 | 3176

7

28.01.2013 14:41

xUSSR сериалы Мент в законе (7 сезон: 1-16 серии из 16) (Дмитрий Матов, Евгений Сологалов) [2013 г., Детектив, криминал, SatRip] nemos
0 | 0

0 | 666

6

17.08.2014 19:30



Последний раз редактировалось: nemos (06.11.2014 06:43), всего редактировалось 7 раз(а)

nemos Пол:Муж

24-Авг-2014 20:24

Внимание! Раздача обновлена 24 серии.

Яндекс.Метрика powered by Sphinx


В Н И М А Н И Е
Сайт не распространяет и не хранит электронные версии произведений, а лишь бесплатно и без коммерческой выгоды (не требуя взамен платы,
SMS и т.д.) предоставляет доступ к создаваемому пользователями каталогу ссылок на торрент-файлы, которые содержат только списки хеш-сумм.
Убедительная просьба с жалобами обращаться напрямую к пользователю, разместившему торрент файл.

Вверх