Loading...
Error

Дело для двоих (1-12 серии из 12) (Антон Азаров, Карим Шихар) [2014 г., Детектив, SatRip]

Статистика раздачи
Размер:  6,32 GB   |    Зарегистрирован:  2 года 5 месяцев   |    Скачан:  21 раз

Полного источника не было: 12 дней

Сидов:  0  |  0 KB/s  ]   Личеров:  0  |  0 KB/s  ]

* - сиды/пиры с внешних источников

   
 
Автор Сообщение

nemos Пол:Муж

14-Авг-2014 12:27

Дело для двоих


Год выпуска: 2014
Жанр: Детектив
Страна: Россия
Режиссер: Антон Азаров, Карим Шихар
В ролях: Анна Пескова, Михаил Химичев, Евгений Бургела, Александр Кобзарь, Александр Трошин, Сергей Романюк, Сергей Калантай, Андрей Исаенко, Борис Книженко, Валерия Чокурашвили, Янина Соколова, Анна Сырбу, Алена Яблочная, Евгений Плиско-Куприн, Екатерина Гулякова, Варвара Куприна, Алла Гордиенко, Денис Демченко, Валерий Легин, Игорь Рубашкин, Дарина Лобода, Георгий Дрозд, Людмила Загорская, Елизавета Майская, Ярослав Гуревич, Дмитрий Гаврилов (II), Ольга Лукьяненко, Саак Дурян, Яна Глущенко, Алексей Череватенко, Виталий Салий, Фёдор Гуринец, Денис Толяренко, Алексей Барбинов, Игорь Писный, Пётр Миронов
Сюжет фильма:
История пойдет о работе двух коллег специального отдела внутренних дел. Они – «профи», мастера своего дела, поэтому им достается всегда самое сложное и запутанное дело, с кровавым убийством. Две привлекательные и молодые женщины, с сильным характером. За плечами большой опыт работы со многими преступниками, в том числе маньяками, киллерами и рецидивистами. Не каждый человек способен изо дня в день терпеть тяжелый и напряжённый график, где жизнь постоянно находится под угрозой, но только не они. Их главный объект работы – общественная безопасность, и выявление криминальных структур.


Качество видео: SatRip

Продолжительность: 00:47:13 серия
Формат: AVI
Видео: XviD, 704x368, 1400 kbps
Аудио: русский, MP3 2.0, 192 kbps

Код:

E:\Фильмы Раздача-1\Дело для двоих (2014)\Дело для двоих.(01.seriya).2014.XviD.SATRip.by.simka.avi
   General
      Complete name : E:\Фильмы Раздача-1\Дело для двоих (2014)\Дело для двоих.(01.seriya).2014.XviD.SATRip.by.simka.avi
      Format : AVI
      Format/Info : Audio Video Interleave
      File size : 541 MiB
      Duration : 47mn 13s
      Overall bit rate : 1 602 Kbps
      Writing application : VirtualDubModRus 1.5.10.2 (build 2542/release)
      Writing library : VirtualDubMod build 2542/release
   Video #0
      ID : 0
      Format : MPEG-4 Visual
      Format profile : Advanced Simple@L5
      Format settings, BVOP : 1
      Format settings, QPel : No
      Format settings, GMC : No warppoints
      Format settings, Matrix : Default (MPEG)
      Codec ID : XVID
      Codec ID/Hint : XviD
      Duration : 47mn 13s
      Bit rate : 1 400 Kbps
      Width : 704 pixels
      Height : 368 pixels
      Display aspect ratio : 1.913
      Frame rate : 25.000 fps
      Color space : YUV
      Chroma subsampling : 4:2:0
      Bit depth : 8 bits
      Scan type : Progressive
      Compression mode : Lossy
      Bits/(Pixel*Frame) : 0.216
      Stream size : 473 MiB (87%)
      Writing library : XviD 1.2.1 (UTC 2008-12-04)
   Audio #1
      ID : 1
      Format : MPEG Audio
      Format version : Version 1
      Format profile : Layer 3
      Mode : Joint stereo
      Mode extension : MS Stereo
      Codec ID : 55
      Codec ID/Hint : MP3
      Duration : 47mn 13s
      Bit rate mode : Constant
      Bit rate : 192 Kbps
      Channel(s) : 2 channels
      Sampling rate : 48.0 KHz
      Compression mode : Lossy
      Stream size : 64.8 MiB (12%)
      Alignment : Aligned on interleaves
      Interleave, duration : 40 ms (1.00 video frame)
      Interleave, preload duration : 504 ms
      Writing library : LAME3.99r
      Encoding settings : -m j -V 4 -q 2 -lowpass 18.6 -b 192
picpicpicpicpicpicpicpicpicpicpicpicpicpicpicpicpic
Для увеличения картинки щелкните мышкой по превью

Этот торрент недоступен для скачивания без регистрации, однако доступен по публичной magnet-ссылке (источники с публичных трекеров). Перед использованием ссылки прочтите, пожалуйста Пользовательское соглашение, а также как можно дольше оставайтесь на раздаче! Для того, чтобы скачать сам торрент-файл (который видит больше источников), а также для того, чтобы поблагодарить релизера, вам необходимо зарегистрироваться. Если регистрироваться лень - вы можете также попробовать скачать релиз по нашим партнерским ссылкам ниже.

[underverse.su].t43075.torrent
Трекер: Зарегистрирован   [ 21.08.2014 16:30 ]  

Статус: проверено (by nemos at 21.08.2014 16:30)
Поблагодарили: 4 человека
Тип торрента: публичный - доступные источники с открытых трекеров: 
Размер: 6,32 GB (занимает 1,44 DVDR, для записи нужно 2 болванки DVDR/RW)
 
 


Последний раз редактировалось: nemos (06.11.2014 07:03), всего редактировалось 4 раз(а)

nemos Пол:Муж

16-Авг-2014 02:15

Внимание! Торр файл обновлён 12-ать сериЙ.

Яндекс.Метрика powered by Sphinx


В Н И М А Н И Е
Сайт не распространяет и не хранит электронные версии произведений, а лишь бесплатно и без коммерческой выгоды (не требуя взамен платы,
SMS и т.д.) предоставляет доступ к создаваемому пользователями каталогу ссылок на торрент-файлы, которые содержат только списки хеш-сумм.
Убедительная просьба с жалобами обращаться напрямую к пользователю, разместившему торрент файл.

Вверх