Loading...
Error

Ной / Noah (Даррен Аронофски) [2014 г., драма, приключения, фэнтези, BDRip] Dub + Original + Sub (Rus,Ukr,Eng) HQ Underverse

Статистика раздачи
Размер:  2,17 GB   |    Зарегистрирован:  2 года 3 месяца   |    Скачан:  56 раз
Сидов:  4  |  0 KB/s  ]   Личеров:  0  |  0 KB/s  ]

* - сиды/пиры с внешних источников

   
 
Автор Сообщение

HQ Underverse 

14-Авг-2014 09:45

Ной / Noah


Год выпуска: 2014
Жанр: драма, приключения, фэнтези
Страна: США
Режиссер: Даррен Аронофски
В ролях: Рассел Кроу, Рэй Уинстон, Эмма Уотсон, Кевин Дюран, Дженнифер Коннелли, Логан Лерман, Энтони Хопкинс, Марк Марголис, Ник Нолти, Дуглас Бут
Сюжет фильма:
История отца, воина и спасителя Человечества и всего живого на Земле.

  • Мировая премьера: 10 марта 2014
  • Российская премьера: 27 марта 2014, «Централ Партнершип» 3D

/
Качество видео: BDRip

Продолжительность: 02:17:53
Формат: avi
Видео: XviD, 720x384, 1858 kbps
Аудио #1: русский, дублированный [лицензия], AC3 5.1, 384 kbps
Аудио #2: английский, оригинал, AC3 5.1, 384 kbps (отдельным файлом: здесь)
Субтитры #1: внешние, SRT, украинский
Субтитры #2: внешние, SRT, английский
Субтитры #3: внешние, SRT, русский

Код:

General
Complete name                    : Y:\Ной\Noah.2014.BDRip.XviD.AC3.Rus.D.HQ.Underverse.avi
Format                           : AVI
Format/Info                      : Audio Video Interleave
Format profile                   : OpenDML
File size                        : 2.17 GiB
Duration                         : 2h 17mn
Overall bit rate                 : 2 255 Kbps
Writing application              : VirtualDubMod 1.5.10.3 | www.virtualdub-fr.org || (build 2550/release)
Writing library                  : VirtualDubMod build 2550/release

Video
ID                               : 0
Format                           : MPEG-4 Visual
Format profile                   : Streaming Video@L1
Format settings, BVOP            : Yes
Format settings, QPel            : No
Format settings, GMC             : No warppoints
Format settings, Matrix          : Custom
Codec ID                         : XVID
Codec ID/Hint                    : XviD
Duration                         : 2h 17mn
Bit rate                         : 1 859 Kbps
Width                            : 720 pixels
Height                           : 384 pixels
Display aspect ratio             : 1.875
Frame rate                       : 23.976 fps
Resolution                       : 24 bits
Colorimetry                      : 4:2:0
Scan type                        : Progressive
Bits/(Pixel*Frame)               : 0.280
Stream size                      : 1.79 GiB (82%)
Writing library                  : XviD 64

Audio
ID                               : 1
Format                           : AC-3
Format/Info                      : Audio Coding 3
Codec ID                         : 2000
Duration                         : 2h 17mn
Bit rate mode                    : Constant
Bit rate                         : 384 Kbps
Channel(s)                       : 6 channels
Channel positions                : Front: L C R, Surround: L R, LFE
Sampling rate                    : 48.0 KHz
Stream size                      : 379 MiB (17%)
Alignment                        : Split accross interleaves
Interleave, duration             : 42 ms (1.00 video frame)
Interleave, preload duration     : 500 ms
Title                            : Russian (Dub)

General
Complete name                    : Y:\Ной\Noah.2014.BDRip.XviD.AC3.Rus.D.HQ.Underverse.ENG.ac3
Format                           : AC-3
Format/Info                      : Audio Coding 3
File size                        : 379 MiB
Duration                         : 2h 17mn
Overall bit rate                 : 384 Kbps

Audio
Format                           : AC-3
Format/Info                      : Audio Coding 3
Duration                         : 2h 17mn
Bit rate mode                    : Constant
Bit rate                         : 384 Kbps
Channel(s)                       : 6 channels
Channel positions                : Front: L C R, Surround: L R, LFE
Sampling rate                    : 48.0 KHz
Stream size                      : 379 MiB (100%)

Релиз группы:

picpicpic
Для увеличения картинки щелкните мышкой по превью

Этот торрент недоступен для скачивания без регистрации, однако доступен по публичной magnet-ссылке (источники с публичных трекеров). Перед использованием ссылки прочтите, пожалуйста Пользовательское соглашение, а также как можно дольше оставайтесь на раздаче! Для того, чтобы скачать сам торрент-файл (который видит больше источников), а также для того, чтобы поблагодарить релизера, вам необходимо зарегистрироваться. Если регистрироваться лень - вы можете также попробовать скачать релиз по нашим партнерским ссылкам ниже.

[underverse.su].t42733.torrent
Трекер: Зарегистрирован   [ 14.08.2014 09:45 ]  

Статус: проверено (by HQ Underverse at 14.08.2014 09:45)
Поблагодарили: 6 человек
Тип торрента: публичный - доступные источники с открытых трекеров: 
Размер: 2,17 GB (занимает 1/2 DVDR, для записи нужно 1 болванка DVDR/RW)
 
 
Похожие темы
Форум Тема Автор Торрент Отв. Посл. сооб.
T Зарубежное кино [DVDRip, Low-Res HDRip, и т.д.] Ной / Noah (Даррен Аронофски / Darren Aronofsky) [2014 г., драма, приключения, BDRip-AVC] Dub (iTunes) + AVO (Есарев) + Original (Eng) + Sub (Rus, Eng) 90ytr90
0 | 0

0 | 1196

15

15.07.2014 06:21

T Зарубежное кино [DVDRip, Low-Res HDRip, и т.д.] Ной / Noah (Даррен Аронофски / Darren Aronofsky) [2014 г., драма, приключения, BDRip-AVC] Dub (iTunes) + Original (Eng) + Sub (Rus, Eng) 90ytr90
15 | 0

0 | 1289

40

15.07.2014 06:41

Зарубежное кино [DVDRip, Low-Res HDRip, и т.д.] Ной / Noah (Даррен Аронофски / Darren Aronofsky) [2014 г., драма, приключения, фэнтези, HDRip] Dub [лицензия] Паукан
41 | 0

0 | 998

49

08.08.2014 07:45

Зарубежное кино [DVDRip, Low-Res HDRip, и т.д.] Ной / Noah (Даррен Аронофски / Darren Aronofsky) [2014 г., драма, приключения, фэнтези, HDRip] Dub [лицензия] Паукан
116 | 4

1 | 1148

71

10.01.2015 14:01

Зарубежное кино [HDDVDRip / BDRip / WEB-DL / HDTV 1080/720р] Ной / Noah (Даррен Аронофски) [2014 г., приключения, драма, фэнтези, BDRip 720p] Dub (Rus,Ukr) + Original + Sub (Rus,Ukr,Eng) Паукан
4 | 0

1 | 1232

49

10.08.2014 12:08

semtt 

29-Авг-2014 23:51

В погоне за остротой сюжета при создании фильма "Ной" американцы скатились в откровенную ересь. Пред нами предстал эпохальный приквел "Капитана Филлипса". Создатели фильма вполне могут претендовать на "Оскар" в номинации "новое прочтение" Ветхого Завета. Как все было на самом деле, можно узнать, скачав, например, эту раздачу.

Agema Пол:Муж

11-Сен-2014 15:40

Ну это в духе америкосов. Ладно историю переписывают. Особенно хохотал над кадрами "исторической" хроники Второй Мировой в киноподелке "Первый мститель" (Captain America). Понятно, что фантастика, но какая мысль закладывается-вдалбливается в моск детей-подростков! Исход войны решил супер-пупер-америкос!
Да и здесь библейские истории не впервой переврали, это и есть америка, страна любых возможностей.

Яндекс.Метрика powered by Sphinx


В Н И М А Н И Е
Сайт не распространяет и не хранит электронные версии произведений, а лишь бесплатно и без коммерческой выгоды (не требуя взамен платы,
SMS и т.д.) предоставляет доступ к создаваемому пользователями каталогу ссылок на торрент-файлы, которые содержат только списки хеш-сумм.
Убедительная просьба с жалобами обращаться напрямую к пользователю, разместившему торрент файл.

Вверх