Loading...
Error

Под куполом / Under the Dome / Сезон: 2 / Серии: 1-10 из 13 (Джек Бендер) [2014, Мистический триллер, ужасы, фантастика WEB-DLRip] MVO (LostFilm)

Статистика раздачи
Размер:  5 GB   |    Зарегистрирован:  2 года 2 месяца   |    Скачан:  10 раз

Полного источника не было: 10 месяцев

Сидов:  0  |  0 KB/s  ]   Личеров:  0  |  0 KB/s  ]

* - сиды/пиры с внешних источников

   
 
Автор Сообщение

uzi2009 Пол:Муж

13-Авг-2014 09:10

Под куполом / Under the Dome

Год выпуска: 2014
Страна: США, Amblin Television, CBS Television Studios
Жанр: Мистический триллер, ужасы, фантастика
Продолжительность: 00:43:38

Перевод: Профессиональный (многоголосый закадровый) LostFilm
Режиссёр: Джек Бендер

В ролях: Майк Фогель, Натали Мартинез, Бриттани Робертсон, Александр Кох, Колин Форд, Николас Стронг, Рашель Лефевр, Дин Норрис, Маккензи Линтц, Бет Бродерик, Аиша Хиндс, Джолин Парди, Леон Риппи, Нед Беллами, Джефф Фэйи, Мэр Уиннингхэм, Саманта Мэтис, Дэйл Рауль

Описание: Обычным, пригожим осенним днем, город Честерс Миллз, штат Мэн, был внезапно отрезан от остального мира невидимым силовым барьером. Самолеты врезаются в купол и падают, пылая, с небес; садовнику отрезает силовым полем руку; люди, выехавшие в соседний город по делам, не могут вернуться к своим близким; автомобили взрываются от столкновения с куполом. Никто не понимает, что это за барьер, откуда он взялся и исчезнет ли он.



Качество: WEB-DLRip
Формат: AVI
Видео кодек: XviD
Аудио кодек: MP3
Видео: XviD, 720x400, 23.976 fps, ~1 915 Kbps
Аудио: МР3, 2 ch, 192 Кбит/с
Format : AVI
Format/Info : Audio Video Interleave
File size : 660 MiB
Duration : 43mn 38s
Overall bit rate mode : Variable
Overall bit rate : 2 115 Kbps
Writing application : Nandub v1.0rc2
Writing library : Nandub build 1853/release

Video
ID : 0
Format : MPEG-4 Visual
Format profile : Advanced Simple@L5
Format settings, BVOP : No
Format settings, QPel : No
Format settings, GMC : No warppoints
Format settings, Matrix : Default (H.263)
Codec ID : XVID
Codec ID/Hint : XviD
Duration : 43mn 38s
Bit rate : 1 915 Kbps
Width : 720 pixels
Height : 400 pixels
Display aspect ratio : 16:9
Frame rate : 23.976 fps
Color space : YUV
Chroma subsampling : 4:2:0
Bit depth : 8 bits
Scan type : Progressive
Compression mode : Lossy
Bits/(Pixel*Frame) : 0.277
Stream size : 598 MiB (91%)
Writing library : XviD 1.2.1 (UTC 2008-12-04)

Audio
ID : 1
Format : MPEG Audio
Format version : Version 1
Format profile : Layer 3
Mode : Joint stereo
Mode extension : MS Stereo
Codec ID : 55
Codec ID/Hint : MP3
Duration : 43mn 38s
Bit rate mode : Variable
Bit rate : 192 Kbps
Channel(s) : 2 channels
Sampling rate : 48.0 KHz
Compression mode : Lossy
Stream size : 58.3 MiB (9%)
Alignment : Aligned on interleaves
Interleave, duration : 24 ms (0.58 video frame)
Interleave, preload duration : 493 ms
Writing library : LAME3.97b
Encoding settings : -m j -V 4 -q 3 -lowpass 18.6 --abr 192
pic pic pic pic pic
Внимание! Раздача ведётся путём добавления новых серий; при каждом добавлении создаётся новый торрент. Чтобы начать докачку новой серии, пользователям необходимо сделать следующее:
(1) остановить скачивание,
(2) удалить старый торрент у себя из клиента (старые серии удалять не надо),
(3) скачать новый торрент и запустить его у себя в клиенте вместо старого, при этом указать клиенту путь в старую папку куда и должно происходить скачивание новых серий.

Ваш клиент при этом должен произвести хеширование (проверку) старой папки (если не производит сам - помогите ему сделать это), и будет докачивать только те серии которых у вас ещё нет. Старые серии при этом не удаляются, а продолжают раздаваться!

Eсли вы уже удалили старые серии, то предотвратить повторную закачку старых серий можно, отжав галочку в соответствующих местах при запуске нового торрента. По возможности, желательно не удалять старые серии как можно дольше чтобы релизёр не столько продолжал раздавать старые серии, а смог сконцентрироваться на новых.
28.08.2014 - добавлены 7 и 8 серии.


03.09.2014 - добавлена 9 серия.


09.09.2014 - добавлена 10 серия.

Этот торрент недоступен для скачивания без регистрации, однако доступен по публичной magnet-ссылке (источники с публичных трекеров). Перед использованием ссылки прочтите, пожалуйста Пользовательское соглашение, а также как можно дольше оставайтесь на раздаче! Для того, чтобы скачать сам торрент-файл (который видит больше источников), а также для того, чтобы поблагодарить релизера, вам необходимо зарегистрироваться. Если регистрироваться лень - вы можете также попробовать скачать релиз по нашим партнерским ссылкам ниже.

[underverse.su].t42687.torrent
Трекер: Зарегистрирован   [ 08.09.2014 22:07 ]  

Статус: T временная (by Паукан at 01.10.2014 13:27)
Поблагодарили: 2 человека
Тип торрента: публичный - доступные источники с открытых трекеров: 
Размер: 5 GB (занимает 1,14 DVDR, для записи нужно 2 болванки DVDR/RW)
 
 
Похожие темы
Форум Тема Автор Торрент Отв. Посл. сооб.
Зарубежные сериалы Под куполом / Under the Dome / Сезон 1 / Серии 1-13 (13) (Джек Бендер) [2013 г., Фантастика, ужасы, WEB-DLRip] MVO + Original Чертёнок
1 | 1

0 | 4050

26

04.08.2013 07:53

Зарубежные сериалы Под куполом / Under the Dome (Джек Бендер) / Сезон 1 / Серии 1-13 (13) [2013 г., мистический триллер, научная фантастика, экранизация, WEB-DLRip-AVC] MVO Чертёнок
6 | 0

1 | 810

13

30.09.2013 17:48

Зарубежные сериалы Под куполом / Under the Dome / Сезон 3 (1-13 серии из 13) (Джек Бендер, Дэвид Баррет, Питер Лето) [2015 г., фантастика, триллер, драма, детектив, WEB-DLRip] MVO + Original older
10 | 5

5 | 1427

11

25.09.2015 06:56

Зарубежные сериалы [BD / Remux / BDRip / WEB-DL / HDTV 1080/720р] Под куполом / Under the Dome / Сезон: 1 / Серии: 1-13 из 13 (Джек Бендер / Jack Bender) [2013, драма, триллер, фантастика, WEB-DL 1080p] DVO (Кубик в Кубе) + Original + Subs (Rus, Eng) uzi2009
1 | 0

0 | 1136

6

13.08.2014 09:04

Зарубежные сериалы [BD / Remux / BDRip / WEB-DL / HDTV 1080/720р] Под куполом / Under the Dome (Сезон 1-3, серии 1-39 из 39) (Дэвид Барретт, Питер Год) [2013-2015 г., фантастика, триллер, драма, детектив, WEB-DL 720p] MVO (LostFilm) K7SoLoN
0 | 0

3 | 1088

0

15.09.2015 10:57



Последний раз редактировалось: uzi2009 (08.09.2014 22:06), всего редактировалось 3 раз(а)

*Jackal* Пол:Муж

15-Авг-2014 17:57

Аууууу!!!!!! :wink:

robinsar Пол:Муж

15-Сен-2014 17:41

Задумка не плохая. Начало интригует, но в дальнейшем, как мне кажется, сценаристы потеряли изначальный замысел в буднях этого "пионерского лагеря" под куполом.

Яндекс.Метрика powered by Sphinx


В Н И М А Н И Е
Сайт не распространяет и не хранит электронные версии произведений, а лишь бесплатно и без коммерческой выгоды (не требуя взамен платы,
SMS и т.д.) предоставляет доступ к создаваемому пользователями каталогу ссылок на торрент-файлы, которые содержат только списки хеш-сумм.
Убедительная просьба с жалобами обращаться напрямую к пользователю, разместившему торрент файл.

Вверх