Loading...
Error

Картель / Kartellet (Шарлота Сакс Боструп) [2014 г., драма, криминал, BDRip] VO [PashaUP]

Статистика раздачи
Размер:  1,46 GB   |    Зарегистрирован:  2 года 3 месяца   |    Скачан:  12 раз

Полного источника не было: 1 год 11 месяцев

Сидов:  0  |  0 KB/s  ]   Личеров:  0  |  0 KB/s  ]

* - сиды/пиры с внешних источников

   
 
Автор Сообщение

Паукан Пол:Муж

12-Авг-2014 11:31

Картель / Kartellet


Название: Картель
Оригинальное название: Kartellet
Год выпуска: 2014
Жанр: Драма, криминал
Режиссёр: Шарлота Сакс Боструп
В фильме снимались: Андерс В. Бертельсен, Лене Мария Кристенсен, Лейф Сильвестр, Гитте Сием, Ларс Ранте, Беньямин Бое Расмуссен, Еспер Асхольт, Флемминг Эневольд

Описание:
Независимый электрик, водопроводчик контрактор и семьянин Ларс Хальбо решает вступить в борьбу за более крупные контракты. Там он становится конкурентом самых крупных игроков индустрии, которые, как оказалось, заключили между собой систему соглашений. По ней они постоянно делят между собой самые привлекательные контракты с высокими прибылями.
Они не собираются смиряться с появлением конкурента и хотят переманить его на свою сторону. Ларс отказывается присоединиться к системе картеля. Это ведёт к целой атаке на него, как на бизнес, так и на личную жизнь.



Страна: Дания
Студия: Nordisk Film Production, TV2 Danmark, Radiator Film ApS
Продолжительность: 01:39:35
Перевод: Любительский одноголосый [PashaUP]

Кодек: XviD
Качество: BDRip
Видео: 720x304, 1641 kbps, 24 fps, 0,312 Bits/(Pixel*Frame)
Аудио: AC3, 48 kHz, 448 kbps, 6 ch
Субтитры: Русские (отдельно)

Автор рипа: _Bathory_
General
Complete name : J:RipKartelletKartellet.2014.BDRip.by_Bathory.avi
Format : AVI
Format/Info : Audio Video Interleave
File size : 1.46 GiB
Duration : 1h 39mn
Overall bit rate : 2 096 Kbps

Video
ID : 0
Format : MPEG-4 Visual
Format profile : Advanced Simple@L5
Format settings, BVOP : 1
Format settings, QPel : No
Format settings, GMC : No warppoints
Format settings, Matrix : Custom
Codec ID : XVID
Codec ID/Hint : XviD
Duration : 1h 39mn
Bit rate : 1 641 Kbps
Width : 720 pixels
Height : 304 pixels
Display aspect ratio : 2.35:1
Frame rate : 24.000 fps
Color space : YUV
Chroma subsampling : 4:2:0
Bit depth : 8 bits
Scan type : Progressive
Compression mode : Lossy
Bits/(Pixel*Frame) : 0.312
Stream size : 1.14 GiB (78%)
Writing library : XviD 1.2.1 (UTC 2008-12-04)

Audio
ID : 1
Format : AC-3
Format/Info : Audio Coding 3
Mode extension : CM (complete main)
Format settings, Endianness : Big
Codec ID : 2000
Duration : 1h 39mn
Bit rate mode : Constant
Bit rate : 448 Kbps
Channel(s) : 6 channels
Channel positions : Front: L C R, Side: L R, LFE
Sampling rate : 48.0 KHz
Bit depth : 16 bits
Compression mode : Lossy
Stream size : 319 MiB (21%)
Alignment : Aligned on interleaves
Interleave, duration : 64 ms (1.54 video frames)
Interleave, preload duration : 192 ms
Title : Kartellet.2014.BDRemux - [0] Russian
pic pic pic
Для увеличения картинки щелкните мышкой по превью

Этот торрент недоступен для скачивания без регистрации, однако доступен по публичной magnet-ссылке (источники с публичных трекеров). Перед использованием ссылки прочтите, пожалуйста Пользовательское соглашение, а также как можно дольше оставайтесь на раздаче! Для того, чтобы скачать сам торрент-файл (который видит больше источников), а также для того, чтобы поблагодарить релизера, вам необходимо зарегистрироваться. Если регистрироваться лень - вы можете также попробовать скачать релиз по нашим партнерским ссылкам ниже.

[underverse.su].t42621.torrent
Трекер: Зарегистрирован   [ 12.08.2014 11:31 ]  

Статус: проверено (by Паукан at 12.08.2014 11:31)
Поблагодарили: пока никто не поблагодарил...
Тип торрента: публичный - доступные источники с открытых трекеров: 
Размер: 1,46 GB (занимает 1/3 DVDR, для записи нужно 1 болванка DVDR/RW)
 
 

Яндекс.Метрика powered by Sphinx


В Н И М А Н И Е
Сайт не распространяет и не хранит электронные версии произведений, а лишь бесплатно и без коммерческой выгоды (не требуя взамен платы,
SMS и т.д.) предоставляет доступ к создаваемому пользователями каталогу ссылок на торрент-файлы, которые содержат только списки хеш-сумм.
Убедительная просьба с жалобами обращаться напрямую к пользователю, разместившему торрент файл.

Вверх