Loading...
Error

Морпехи 2 : Поле Огня / Jarhead 2: Field of Fire (Дон Майкл Пол) [2014 г., боевик, военный, HDRip] VO

Статистика раздачи
Размер:  749 MB   |    Зарегистрирован:  2 года 3 месяца   |    Скачан:  7 раз

Полного источника не было: 1 год 2 месяца

Сидов:  0  |  0 KB/s  ]   Личеров:  0  |  0 KB/s  ]

* - сиды/пиры с внешних источников

   
 
Автор Сообщение

Паукан Пол:Муж

11-Авг-2014 07:33

Морпехи 2 : Поле Огня / Jarhead 2: Field of Fire


Название: Морпехи 2 : Поле Огня
Оригинальное название: Jarhead 2: Field of Fire
Год выхода: 2014
Жанр: Боевик, Военный
Режиссер: Дон Майкл Пол
Актеры: Джейсон Вонг, Асен Асенов, Дэниел Кетцер, Амр Эль-Баюми, Джесси Гарсиа, Коул Хаузер, Ронни Джатти, Джош Келли, Александр Крустев, Стивен Лэнг, Кесси Лейтон, Боян Левчев

Описание:
Пострадавший в бою и разочарованный войной, Капрал Крис Мерриметт назначен в подразделение, миссия которого - пополнению запасов на отдаленной заставе на краю управляемой Талибаном территории.
Во время движения через враждебную провинцию Гильменд, его отряд получает задание международного значения, они должны вывезти из страны афганскую женщину, известную своими выступлениями против талибов.
Без танков и поддержки с воздуха, Мерримету и его команде понадобится все мужество и огневая мощь, чтобы пройти свой путь по разоренной войной стране.



Страна: США
Студия: BUFO, Universal Pictures
Продолжительность: 01:42:37
Перевод: Любительский (одноголосый) [Andi], перевод [М. Васильев]

Кодек: XviD
Качество: HDRip
Видео: 688x288, 884 kbps, 23,976 fps, 0,186 Bits/(Pixel*Frame)
Аудио: MP3, 48 kHz, 2 ch, 128 kbps
Субтитры: Нет

Автор рипа: _Bathory_
General
Complete name : RipJarhead.2.Field.Of.Fire.2014.HDRip.by_Bathory.avi
Format : AVI
Format/Info : Audio Video Interleave
File size : 749 MiB
Duration : 1h 42mn
Overall bit rate : 1 021 Kbps
Writing application : VirtualDubMod 1.5.10.3 | www.virtualdub-fr.org || (build 2550/release)
Writing library : VirtualDubMod build 2550/release

Video
ID : 0
Format : MPEG-4 Visual
Format profile : Advanced Simple@L5
Format settings, BVOP : 1
Format settings, QPel : No
Format settings, GMC : No warppoints
Format settings, Matrix : Custom
Codec ID : XVID
Codec ID/Hint : XviD
Duration : 1h 42mn
Bit rate : 884 Kbps
Width : 688 pixels
Height : 288 pixels
Display aspect ratio : 2.40:1
Frame rate : 23.976 fps
Color space : YUV
Chroma subsampling : 4:2:0
Bit depth : 8 bits
Scan type : Progressive
Compression mode : Lossy
Bits/(Pixel*Frame) : 0.186
Stream size : 648 MiB (87%)
Writing library : XviD 73

Audio
ID : 1
Format : MPEG Audio
Format version : Version 1
Format profile : Layer 3
Mode : Joint stereo
Codec ID : 55
Codec ID/Hint : MP3
Duration : 1h 42mn
Bit rate mode : Constant
Bit rate : 128 Kbps
Channel(s) : 2 channels
Sampling rate : 48.0 KHz
Compression mode : Lossy
Stream size : 93.9 MiB (13%)
Alignment : Aligned on interleaves
Interleave, duration : 42 ms (1.00 video frame)
Interleave, preload duration : 504 ms
Writing library : LAME3.99r
Encoding settings : -m j -V 4 -q 2 -lowpass 17 -b 128
pic pic pic
Для увеличения картинки щелкните мышкой по превью

Этот торрент недоступен для скачивания без регистрации, однако доступен по публичной magnet-ссылке (источники с публичных трекеров). Перед использованием ссылки прочтите, пожалуйста Пользовательское соглашение, а также как можно дольше оставайтесь на раздаче! Для того, чтобы скачать сам торрент-файл (который видит больше источников), а также для того, чтобы поблагодарить релизера, вам необходимо зарегистрироваться. Если регистрироваться лень - вы можете также попробовать скачать релиз по нашим партнерским ссылкам ниже.

[underverse.su].t42577.torrent
Трекер: Зарегистрирован   [ 11.08.2014 07:33 ]  

Статус: проверено (by Паукан at 11.08.2014 07:33)
Поблагодарили: 1 человек
Тип торрента: публичный - доступные источники с открытых трекеров: 
Размер: 749 MB (занимает 0,17 DVDR, для записи нужно 1 болванка DVDR/RW)
 
 

Яндекс.Метрика powered by Sphinx


В Н И М А Н И Е
Сайт не распространяет и не хранит электронные версии произведений, а лишь бесплатно и без коммерческой выгоды (не требуя взамен платы,
SMS и т.д.) предоставляет доступ к создаваемому пользователями каталогу ссылок на торрент-файлы, которые содержат только списки хеш-сумм.
Убедительная просьба с жалобами обращаться напрямую к пользователю, разместившему торрент файл.

Вверх