Loading...
Error

Бермудские щупальца / Bermuda Tentacles (Ник Лион) [2014 г., ужасы, фантастика, SatRip] MVO

Статистика раздачи
Размер:  1,37 GB   |    Зарегистрирован:  2 года 3 месяца   |    Скачан:  36 раз

Полного источника не было: 1 год 2 месяца

Сидов:  0  |  0 KB/s  ]   Личеров:  0  |  0 KB/s  ]

* - сиды/пиры с внешних источников

   
 
Автор Сообщение

nemos Пол:Муж

11-Авг-2014 04:02

Бермудские щупальца / Bermuda Tentacles




Год выпуска: 2014
Жанр: ужасы, фантастика
Страна: США
Режиссер: Ник Лион
В ролях: Линда Хэмилтон, Тревор Донован, Джон Сэвэдж, Майя, Джейми Кеннеди, Джастин Куомо, Джефф Ректор, Энди Клеменс, Стефани Канту, Люк Уайт
Качество видео: SatRip

Продолжительность: 01:24:00
Формат: AVI
Видео: XviD, 720x448 (1.607), 2166 kbps, 25 fps, 0,269 bpp
Аудио: MP3 / 2.0 / 48 kHz / 128 kbps
Перевод: Профессиональный многоголосый

Военно-воздушным силам США приходится вступить в неравный бой с ужасным морским монстром.

  • Мировая премьера: 4 апреля 2014

Бермудские щупальца (2014) Bermuda Tentacles.трейлер.

Код:

General
Название                            : D:\Торенты\Bermudskiye.shchupalca.2014.P.SATRip.avi
Формат                                   : AVI
Формат/Info                              : Audio Video Interleave
Размер файла                                : 1.37 GiB
Длительность                                 : 1h 24mn
Общий Битрейт                         : 2 304 Kbps
Создано приложением                      : VirtualDubMod 1.5.10.3 | www.virtualdub-fr.org || (build 2550/release)
Writing library                          : VirtualDubMod build 2550/release

Video
ID                                       : 0
Формат                                   : MPEG-4 Visual
Формат profile                           : Advanced Simple@L5
Формат настройки, BVOP                    : 2
Формат настройки, QPel                    : No
Формат настройки, GMC                     : No warppoints
Формат настройки, Matrix                  : Default (H.263)
Кодек ID                                 : XVID
Кодек ID/Hint                            : XviD
Длительность                                 : 1h 24mn
Битрейт                                 : 2 166 Kbps
Width                                    : 720 пикселей
Высота                                   : 448 пикселей
Соотношение кадра                     : 1.607
Частота кадров                               : 25.000 fps
Цветопередача                              : YUV
Chroma subsampling                       : 4:2:0
Разрядность                                : 8 bits
Тип сканирования                                : Progressive
Режим сжатия                         : Lossy
Bits/(Pixel*Frame)                       : 0.269
Размер потока                              : 1.28 GiB (94%)
Writing library                          : XviD 1.2.1 (UTC 2008-12-04)

Audio
ID                                       : 1
Формат                                   : MPEG Audio
Формат version                           : Version 1
Формат profile                           : Layer 3
Mode                                     : Joint stereo
Расширение режима                           : MS Stereo
Кодек ID                                 : 55
Кодек ID/Hint                            : MP3
Длительность                                 : 1h 24mn
Битрейт mode                            : Constant
Битрейт                                 : 128 Kbps
Каналы(s)                               : 2 канала
Частота                            : 48.0 KHz
Режим сжатия                         : Lossy
Размер потока                              : 77.7 MiB (6%)
Выравнивание                                : Aligned on interleaves
Interleave, Длительность                     : 40 ms (1.00 video frame)
Interleave, preload Длительность             : 504 ms
Writing library                          : LAME3.99r
Encoding настройки                        : -m j -V 4 -q 9 -lowpass 17 -b 128
picpicpicpicpicpicpicpicpicpicpic
Для увеличения картинки щелкните мышкой по превью

Этот торрент недоступен для скачивания без регистрации, однако доступен по публичной magnet-ссылке (источники с публичных трекеров). Перед использованием ссылки прочтите, пожалуйста Пользовательское соглашение, а также как можно дольше оставайтесь на раздаче! Для того, чтобы скачать сам торрент-файл (который видит больше источников), а также для того, чтобы поблагодарить релизера, вам необходимо зарегистрироваться. Если регистрироваться лень - вы можете также попробовать скачать релиз по нашим партнерским ссылкам ниже.

[underverse.su].t42574.torrent
Трекер: Зарегистрирован   [ 11.08.2014 04:02 ]  

Статус: проверено (by nemos at 11.08.2014 04:09)
Поблагодарили: 2 человека
Тип торрента: публичный - доступные источники с открытых трекеров: 
Размер: 1,37 GB (занимает 0,31 DVDR, для записи нужно 1 болванка DVDR/RW)
 
 
Похожие темы
Форум Тема Автор Торрент Отв. Посл. сооб.
T Зарубежное кино [DVDRip, Low-Res HDRip, и т.д.] Бермудские щупальца / Bermuda Tentacles (Ник Лион) [2014 г., Ужасы, Фантастика, Боевик, WEB-DLRip] MVO (RUS) + Original (ENG) Ведьмочка
4 | 0

1 | 472

12

30.08.2014 12:36

Зарубежное кино [DVDRip, Low-Res HDRip, и т.д.] Бермудские щупальца / Bermuda Tentacles (Ник Лион) [2014 г., Ужасы, Фантастика, Боевик, HDRip] MVO (RUS) + Original (ENG) Ведьмочка
15 | 1

1 | 718

23

03.09.2014 12:21

Зарубежное кино [HDDVDRip / BDRip / WEB-DL / HDTV 1080/720р] Бермудские щупальца / Bermuda Tentacles (Ник Лион) [2014 г., Ужасы, Фантастика, Боевик, BDRip 720p] MVO (RUS) + Original (ENG) Ведьмочка
10 | 0

0 | 592

12

03.09.2014 09:50


Яндекс.Метрика powered by Sphinx


В Н И М А Н И Е
Сайт не распространяет и не хранит электронные версии произведений, а лишь бесплатно и без коммерческой выгоды (не требуя взамен платы,
SMS и т.д.) предоставляет доступ к создаваемому пользователями каталогу ссылок на торрент-файлы, которые содержат только списки хеш-сумм.
Убедительная просьба с жалобами обращаться напрямую к пользователю, разместившему торрент файл.

Вверх