Loading...
Error

Я – кукла (Юрий Кара) [2002 г., криминальный, боевик, DVDRip]

Статистика раздачи
Размер:  1,37 GB   |    Зарегистрирован:  2 года 3 месяца   |    Скачан:  16 раз

Полного источника не было: 1 год 2 месяца

Сидов:  0  |  0 KB/s  ]   Личеров:  0  |  0 KB/s  ]

* - сиды/пиры с внешних источников

   
 
Автор Сообщение

nemos Пол:Муж

10-Авг-2014 22:31

Я – кукла


Год выпуска: 2002
Жанр: криминальный, боевик
Страна: Россия, Киностудия "Мастер"
Режиссер: Юрий Кара
В ролях: Александр Домогаров, Ольга Сумская, Сергей Никоненко, Аристарх Ливанов, Николай Чиндяйкин, Денис Карасёв, Алла Миронова, Лариса Павлова, Юрий Думчев, Наталья Громушкина, Владимир Епископосян, Андрей Ливанов, Владимир Сальников, Александр Аблязов, Инна Пиварс, Игорь Новоселов (I), Юлия Сташенко
Качество видео: DVDRip

Продолжительность: 01:39:00
Формат: AVI
Видео: DivX, 720x432, 1517 kbps
Аудио: русский, AC3 5.1, 448 kbps

В сердце современной цивилизации до сих пор правят варварские законы. Спецназовец Виктор, прошедший огонь и воду, оказался за гранью рокового круга. В лагере смертников он приговорен к казни в рассрочку: здесь спецагенты высшего класса используют пленных в качестве живых тренажеров для совершенствования боевых навыков. Они становятся безропотными куклами, куклами без имени и прошлого, куклами на кровавых ниточках жестокости. Уцелевший получает в награду еще один день... без надежды увидеть рассвет. Когда прогресс останавливается и мир превращается в первобытные джунгли, когда жизнь ограничивается рингом, где молчит спасительный гонг, когда насилие уничтожает любовь, уцелеет только тот, в ком проснется неукротимый дух древних гладиаторов, способных повернуть историю вспять и разорвать нити судьбы.

Код:

D:\Фильмы Раздача-1\Ja-kukla.2002.DivX.DVDRip-BestVideo.avi
   General
      Complete name : D:\Фильмы Раздача-1\Ja-kukla.2002.DivX.DVDRip-BestVideo.avi
      Format : AVI
      Format/Info : Audio Video Interleave
      File size : 1.37 GiB
      Duration : 1h 39mn
      Overall bit rate : 1 972 Kbps
      Writing application : VirtualDubMod 1.5.4.1 (build 2178/release)
      Writing library : VirtualDubMod build 2178/release
   Video #0
      ID : 0
      Format : MPEG-4 Visual
      Format settings, BVOP : 1
      Format settings, QPel : No
      Format settings, GMC : No warppoints
      Format settings, Matrix : Default (H.263)
      Muxing mode : Packed bitstream
      Codec ID : DX50
      Codec ID/Hint : DivX 5
      Duration : 1h 39mn
      Bit rate : 1 517 Kbps
      Width : 720 pixels
      Height : 432 pixels
      Display aspect ratio : 1.667
      Frame rate : 25.000 fps
      Color space : YUV
      Chroma subsampling : 4:2:0
      Bit depth : 8 bits
      Scan type : Progressive
      Compression mode : Lossy
      Bits/(Pixel*Frame) : 0.195
      Stream size : 1.05 GiB (77%)
      Writing library : DivX 6.7.0 (UTC 2007-09-20)
   Audio #1
      ID : 1
      Format : AC-3
      Format/Info : Audio Coding 3
      Mode extension : CM (complete main)
      Format settings, Endianness : Big
      Codec ID : 2000
      Duration : 1h 39mn
      Bit rate mode : Constant
      Bit rate : 448 Kbps
      Channel(s) : 6 channels
      Channel positions : Front: L C R, Side: L R, LFE
      Sampling rate : 48.0 KHz
      Bit depth : 16 bits
      Compression mode : Lossy
      Stream size : 318 MiB (23%)
      Alignment : Split accross interleaves
      Interleave, duration : 96 ms (2.40 video frames)
      Interleave, preload duration : 96 ms
      Language : Russian
picpicpicpicpicpicpicpicpicpicpicpicpicpicpicpicpicpicpicpic
Для увеличения картинки щелкните мышкой по превью

Этот торрент недоступен для скачивания без регистрации, однако доступен по публичной magnet-ссылке (источники с публичных трекеров). Перед использованием ссылки прочтите, пожалуйста Пользовательское соглашение, а также как можно дольше оставайтесь на раздаче! Для того, чтобы скачать сам торрент-файл (который видит больше источников), а также для того, чтобы поблагодарить релизера, вам необходимо зарегистрироваться. Если регистрироваться лень - вы можете также попробовать скачать релиз по нашим партнерским ссылкам ниже.

[underverse.su].t42556.torrent
Трекер: Зарегистрирован   [ 10.08.2014 22:32 ]  

Статус: проверено (by nemos at 10.08.2014 22:32)
Поблагодарили: пока никто не поблагодарил...
Тип торрента: публичный - доступные источники с открытых трекеров: 
Размер: 1,37 GB (занимает 0,31 DVDR, для записи нужно 1 болванка DVDR/RW)
 
 

Яндекс.Метрика powered by Sphinx


В Н И М А Н И Е
Сайт не распространяет и не хранит электронные версии произведений, а лишь бесплатно и без коммерческой выгоды (не требуя взамен платы,
SMS и т.д.) предоставляет доступ к создаваемому пользователями каталогу ссылок на торрент-файлы, которые содержат только списки хеш-сумм.
Убедительная просьба с жалобами обращаться напрямую к пользователю, разместившему торрент файл.

Вверх