Loading...
Error

Второе дыхание: На рубеже атаки (Михаил Туманишвили) [2008 г., боевик, военный, DVDRip]

Статистика раздачи
Размер:  1,36 GB   |    Зарегистрирован:  2 года 3 месяца   |    Скачан:  23 раза

Полного источника не было: 2 дня 21 час

Сидов:  0  |  0 KB/s  ]   Личеров:  0  |  0 KB/s  ]

* - сиды/пиры с внешних источников

   
 
Автор Сообщение

nemos Пол:Муж

10-Авг-2014 21:01

Второе дыхание: На рубеже атаки


Год выпуска: 2008
Жанр: боевик, военный
Страна: Россия
Режиссер: Михаил Туманишвили
В ролях: Екатерина Климова, Никита Емшанов, Максим Щеголев, Всеволод Шиловский, Петр Красилов, Денис Никифоров
Сюжет фильма:
Главный герой картины – молодой прожигатель жизни Павел Макаров. Проснувшись после очередной вечеринки, он обнаруживает рядом с собой незнакомую девушку, которая всерьез предлагает жениться на ней, но получает отказ. Дочь местного авторитета, она не привыкла слышать слово «нет». И теперь Макарову грозят серьезные неприятности: ему приходится срочно покинуть родной город. Тогда он соглашается на то, от чего давно отказывался, – служить в армии по контракту...


Качество видео: DVDRip

Продолжительность: 01:43:00
Формат: AVI
Видео: XviD, 704x384, 1 428 kbps
Аудио: AC3 2.0, 448 kbps

Код:

D:\Фильмы Раздача-1\Vtoroe.dihanie.2008.O.DVDRip_RUSSFILM.avi
   General
      Complete name : D:\Фильмы Раздача-1\Vtoroe.dihanie.2008.O.DVDRip_RUSSFILM.avi
      Format : AVI
      Format/Info : Audio Video Interleave
      File size : 1.36 GiB
      Duration : 1h 43mn
      Overall bit rate : 1 886 Kbps
      Writing application : VirtualDubMod 1.5.10.2 (build 2540/release)
      Writing library : VirtualDubMod build 2540/release
   Video #0
      ID : 0
      Format : MPEG-4 Visual
      Format profile : Advanced Simple@L5
      Format settings, BVOP : 2
      Format settings, QPel : No
      Format settings, GMC : No warppoints
      Format settings, Matrix : Default (MPEG)
      Muxing mode : Packed bitstream
      Codec ID : XVID
      Codec ID/Hint : XviD
      Duration : 1h 43mn
      Bit rate : 1 428 Kbps
      Width : 704 pixels
      Height : 384 pixels
      Display aspect ratio : 1.85:1
      Frame rate : 25.000 fps
      Color space : YUV
      Chroma subsampling : 4:2:0
      Bit depth : 8 bits
      Scan type : Progressive
      Compression mode : Lossy
      Bits/(Pixel*Frame) : 0.211
      Stream size : 1.03 GiB (76%)
      Writing library : XviD 1.2.0.dev47 (UTC 2006-11-01)
   Audio #1
      ID : 1
      Format : AC-3
      Format/Info : Audio Coding 3
      Mode extension : CM (complete main)
      Format settings, Endianness : Big
      Codec ID : 2000
      Duration : 1h 43mn
      Bit rate mode : Constant
      Bit rate : 448 Kbps
      Channel(s) : 6 channels
      Channel positions : Front: L C R, Side: L R, LFE
      Sampling rate : 48.0 KHz
      Bit depth : 16 bits
      Compression mode : Lossy
      Stream size : 332 MiB (24%)
      Alignment : Split accross interleaves
      Interleave, duration : 40 ms (1.00 video frame)
      Interleave, preload duration : 500 ms
picpicpicpicpicpicpicpicpicpicpicpicpicpicpicpic
Для увеличения картинки щелкните мышкой по превью

Этот торрент недоступен для скачивания без регистрации, однако доступен по публичной magnet-ссылке (источники с публичных трекеров). Перед использованием ссылки прочтите, пожалуйста Пользовательское соглашение, а также как можно дольше оставайтесь на раздаче! Для того, чтобы скачать сам торрент-файл (который видит больше источников), а также для того, чтобы поблагодарить релизера, вам необходимо зарегистрироваться. Если регистрироваться лень - вы можете также попробовать скачать релиз по нашим партнерским ссылкам ниже.

[underverse.su].t42555.torrent
Трекер: Зарегистрирован   [ 10.08.2014 21:01 ]  

Статус: проверено (by nemos at 10.08.2014 21:02)
Поблагодарили: пока никто не поблагодарил...
Тип торрента: публичный - доступные источники с открытых трекеров: 
Размер: 1,36 GB (занимает 0,31 DVDR, для записи нужно 1 болванка DVDR/RW)
 
 
Похожие темы
Форум Тема Автор Торрент Отв. Посл. сооб.
xUSSR сериалы Второе дыхание [серии 01-04 (04)] (Олег Туранский) [2016 г., мелодрама, комедия, WEB-DLRip] 90ytr90
207 | 19

0 | 205

2

20.11.2016 12:19


Яндекс.Метрика powered by Sphinx


В Н И М А Н И Е
Сайт не распространяет и не хранит электронные версии произведений, а лишь бесплатно и без коммерческой выгоды (не требуя взамен платы,
SMS и т.д.) предоставляет доступ к создаваемому пользователями каталогу ссылок на торрент-файлы, которые содержат только списки хеш-сумм.
Убедительная просьба с жалобами обращаться напрямую к пользователю, разместившему торрент файл.

Вверх