Loading...
Error

Жизнь Адель / La vie d'Adele - Chapitres 1 et 2 (Абделатиф Кешиш) [2013 г., драма, мелодрама, HDRip] Dub

Статистика раздачи
Размер:  1,47 GB   |    Зарегистрирован:  2 года 3 месяца   |    Скачан:  4 раза
Сидов:  1  |  0 KB/s  ]   Личеров:  0  |  0 KB/s  ]

* - сиды/пиры с внешних источников

   
 
Автор Сообщение

luis5 Пол:Муж

10-Авг-2014 06:59

Жизнь Адель / La vie d'Adele - Chapitres 1 et 2


Год выпуска: 2013
Жанр: драма, мелодрама
Страна: Франция , Бельгия , Испания
Режиссер: Абделатиф Кешиш
В ролях: Адель Экзаркопулос, Леа Сейду, Салим Кешьюш, Орельен Рекуан, Кэтрин Сали, Бенжамин Сиксу, Мона Валравенс, Альма, Жодоровски, Жереми Лаэрт, Энн Лорье
Сюжет фильма:
15-летняя Адель мечтает о вечной любви и встречает очаровательного парня, который тут же влюбляется в неё. Но неожиданно для неё самой, Адель начинает видеть странные сны с участием загадочной девушки с синими волосами, которую случайно встретила на улице. Юная Адель начинает понимать, что её манят не просто синие волосы, её привлекает сама незнакомка.

Качество видео: HDRip

Продолжительность: 03:00:08
Формат: avi
Видео: XviD, 720x304, 1027 kbps
Аудио: русский, дублированный [лицензия], MP3 2.0, 128 kbps

Код:

General
Complete name                    : C:\Torrent\Zhizn.Adel.2013.D.HDRip.1.47GB.avi
Format                           : AVI
Format/Info                      : Audio Video Interleave
File size                        : 1.47 GiB
Duration                         : 3h 0mn
Overall bit rate                 : 1 164 Kbps
Writing application              : VirtualDubMod 1.5.10.2 (build 2540/release)
Writing library                  : VirtualDubMod build 2540/release

Video
ID                               : 0
Format                           : MPEG-4 Visual
Format profile                   : Streaming Video@L1
Format settings, BVOP            : Yes
Format settings, QPel            : No
Format settings, GMC             : No warppoints
Format settings, Matrix          : Custom
Codec ID                         : XVID
Codec ID/Hint                    : XviD
Duration                         : 3h 0mn
Bit rate                         : 1 028 Kbps
Width                            : 720 pixels
Height                           : 304 pixels
Display aspect ratio             : 2.35
Frame rate                       : 23.976 fps
Resolution                       : 24 bits
Colorimetry                      : 4:2:0
Scan type                        : Progressive
Bits/(Pixel*Frame)               : 0.196
Stream size                      : 1.29 GiB (88%)
Writing library                  : XviD 73

Audio
ID                               : 1
Format                           : MPEG Audio
Format version                   : Version 1
Format profile                   : Layer 3
Codec ID                         : 55
Codec ID/Hint                    : MP3
Duration                         : 2h 59mn
Bit rate mode                    : Constant
Bit rate                         : 128 Kbps
Channel(s)                       : 2 channels
Sampling rate                    : 48.0 KHz
Resolution                       : 16 bits
Stream size                      : 164 MiB (11%)
Alignment                        : Aligned on interleaves
Interleave, duration             : 42 ms (1.00 video frame)
Interleave, preload duration     : 504 ms

picpicpicpic
Для увеличения картинки щелкните мышкой по превью

Этот торрент недоступен для скачивания без регистрации, однако доступен по публичной magnet-ссылке (источники с публичных трекеров). Перед использованием ссылки прочтите, пожалуйста Пользовательское соглашение, а также как можно дольше оставайтесь на раздаче! Для того, чтобы скачать сам торрент-файл (который видит больше источников), а также для того, чтобы поблагодарить релизера, вам необходимо зарегистрироваться. Если регистрироваться лень - вы можете также попробовать скачать релиз по нашим партнерским ссылкам ниже.

[underverse.su].t42537.torrent
Трекер: Зарегистрирован   [ 10.08.2014 08:09 ]  

Статус: проверено (by Ведьмочка at 10.08.2014 08:46)
Поблагодарили: 1 человек
Тип торрента: публичный - доступные источники с открытых трекеров: 
Размер: 1,47 GB (занимает 0,33 DVDR, для записи нужно 1 болванка DVDR/RW)
 
 
Похожие темы
Форум Тема Автор Торрент Отв. Посл. сооб.
Зарубежное кино [DVDRip, Low-Res HDRip, и т.д.] Жизнь Адель / La vie d'Adele - Chapitres 1 et 2 (Абделатиф Кешиш / Abdelatif Kechiche) [2013 г., драма, мелодрама, HDRip] Dub 90ytr90
8 | 1

0 | 976

9

15.03.2014 08:15

Зарубежное кино [DVDRip, Low-Res HDRip, и т.д.] Жизнь Адель / La vie d'Adele - Chapitres 1 et 2 (Абделатиф Кешиш / Abdelatif Kechiche) [2013 г., драма, мелодрама, HDRip] Dub 90ytr90
2 | 0

0 | 1022

17

15.03.2014 09:10

Зарубежное кино [DVDRip, Low-Res HDRip, и т.д.] Жизнь Адель / La vie d'Adele - Chapitres 1 et 2 (Абделатиф Кешиш / Abdelatif Kechiche) [2013 г., драма, мелодрама, BDRip-AVC] Dub + Sub (Rus, Eng) 90ytr90
3 | 0

0 | 1747

7

05.05.2014 15:12

Зарубежное кино [HDDVDRip / BDRip / WEB-DL / HDTV 1080/720р] Жизнь Адель / La vie d'Adele - Chapitres 1 et 2 (Абделатиф Кешиш / Abdelatif Kechiche) [2013 г., драма, мелодрама, BDRip 720p] Dub + Original (Fre) + Sub (Eng) 90ytr90
1 | 0

0 | 1025

8

15.03.2014 09:18

Зарубежное кино [HDDVDRip / BDRip / WEB-DL / HDTV 1080/720р] Жизнь Адель / La vie d'Adele - Chapitres 1 et 2 (Абделатиф Кешиш / Abdelatif Kechiche) [2013 г., драма, мелодрама, BDRip 720p] Dub + DVO (Green Tea) + AVO (Матвеев) + Original (Fre) + Sub (Rus, Eng) 90ytr90
1 | 0

0 | 307

2

05.05.2014 15:02

Зарубежное кино [HDDVDRip / BDRip / WEB-DL / HDTV 1080/720р] Жизнь Адель / La vie d'Adele - Chapitres 1 et 2 (Абделатиф Кешиш / Abdelatif Kechiche) [2013 г., драма, мелодрама, BDRip 1080p] Dub + DVO (Green Tea) + AVO (Матвеев) + Original (Fre) + Sub (Rus, Eng) 90ytr90
1 | 0

0 | 337

2

05.05.2014 15:30

Popular feature films Жизнь Адель / La vie d'Adele - Chapitres 1 et 2 (Абделатиф Кешиш / Abdelatif Kechiche) [2013 г., драма, мелодрама, HDRip] Original (Fre) + Sub (Rus) 90ytr90
3 | 0

0 | 649

10

20.02.2014 09:31


Яндекс.Метрика powered by Sphinx


В Н И М А Н И Е
Сайт не распространяет и не хранит электронные версии произведений, а лишь бесплатно и без коммерческой выгоды (не требуя взамен платы,
SMS и т.д.) предоставляет доступ к создаваемому пользователями каталогу ссылок на торрент-файлы, которые содержат только списки хеш-сумм.
Убедительная просьба с жалобами обращаться напрямую к пользователю, разместившему торрент файл.

Вверх