Loading...
Error

Первый мститель: Другая война / Captain America: The Winter Soldier (Энтони Руссо, Джо Руссо) [2014 г., фантастика, боевик, приключения, BDRip] Dub + Original HQ Underverse

Статистика раздачи
Размер:  2,9 GB   |    Зарегистрирован:  2 года 4 месяца   |    Скачан:  47 раз

Полного источника не было: 4 месяца 24 дня

Сидов:  0  |  0 KB/s  ]   Личеров:  0  |  0 KB/s  ]

* - сиды/пиры с внешних источников

   
 
Автор Сообщение

HQ Underverse 

08-Авг-2014 16:34

Первый мститель: Другая война / Captain America: The Winter Soldier


Год выпуска: 2014
Жанр: фантастика, боевик, приключения
Страна: США
Режиссер: Энтони Руссо, Джо Руссо
В ролях: Крис Эванс, Скарлетт Йоханссон, Энтони Маки, Себастьян Стэн, Роберт Редфорд, Сэмюэл Л. Джексон, Фрэнк Грилло, Коби Смолдерс, Эмили ВанКэмп, Максимилиано Эрнандес
Сюжет фильма:
После беспрецедентных событий, впервые собравших вместе команду Мстителей, Стив Роджерс, известный также как Капитан Америка, оседает в Вашингтоне и пытается приспособиться к жизни в современном мире. Но покой этому герою только снится — пытаясь помочь коллеге из агентства Щ. И. Т, Стив оказывается в центре событий, грозящих катастрофой мирового масштаба. Для того, чтобы разоблачить злодейский заговор, Капитан Америка объединяется с Черной вдовой. К ним также присоединяется новый соратник, известный как Сокол, однако никто из них даже не подозревает, на что способен новый враг.

  • Мировая премьера: 13 марта 2014
  • Российская премьера: 3 апреля 2014

/
Качество видео: BDRip

Продолжительность: 02:15:54
Формат: avi
Видео: XviD, 720x304, 2146 kbps
Аудио #1: русский, дублированный [лицензия], AC3 5.1, 448 kbps
Аудио #2: английский, оригинал, AC3 5.1, 448 kbps
Субтитры: внешние, SRT, русский
Субтитры: внешние, SRT, английский
Субтитры: внешние, SRT, русский (форсированные)
Семпл: http://multi-up.com/991252

Релиз группы:

Код:

General
Complete name                    : D:\Video\Movies\Releases\Captain.America.-.The.Winter.Soldier.2014.BDRip.XviD.AC3.Rus.D.Eng.O.HQ.Underverse.avi
Format                           : AVI
Format/Info                      : Audio Video Interleave
Format profile                   : OpenDML
File size                        : 2.90 GiB
Duration                         : 2h 15mn
Overall bit rate                 : 3 059 Kbps
Writing application              : VirtualDubMod 1.5.10.3 | www.virtualdub-fr.org || (build 2550/release)
Writing library                  : VirtualDubMod build 2550/release

Video
ID                               : 0
Format                           : MPEG-4 Visual
Format profile                   : Streaming Video@L1
Format settings, BVOP            : Yes
Format settings, QPel            : No
Format settings, GMC             : No warppoints
Format settings, Matrix          : Custom
Codec ID                         : XVID
Codec ID/Hint                    : XviD
Duration                         : 2h 15mn
Bit rate                         : 2 147 Kbps
Width                            : 720 pixels
Height                           : 304 pixels
Display aspect ratio             : 2.35
Frame rate                       : 23.976 fps
Resolution                       : 24 bits
Colorimetry                      : 4:2:0
Scan type                        : Progressive
Bits/(Pixel*Frame)               : 0.409
Stream size                      : 2.04 GiB (70%)
Writing library                  : XviD 64

Audio #1
ID                               : 1
Format                           : AC-3
Format/Info                      : Audio Coding 3
Codec ID                         : 2000
Duration                         : 2h 15mn
Bit rate mode                    : Constant
Bit rate                         : 448 Kbps
Channel(s)                       : 6 channels
Channel positions                : Front: L C R, Surround: L R, LFE
Sampling rate                    : 48.0 KHz
Stream size                      : 435 MiB (15%)
Alignment                        : Split accross interleaves
Interleave, duration             : 42 ms (1.00 video frame)
Interleave, preload duration     : 500 ms
Title                            : Russian Dub (BD EUR)

Audio #2
ID                               : 2
Format                           : AC-3
Format/Info                      : Audio Coding 3
Codec ID                         : 2000
Duration                         : 2h 15mn
Bit rate mode                    : Constant
Bit rate                         : 448 Kbps
Channel(s)                       : 6 channels
Channel positions                : Front: L C R, Surround: L R, LFE
Sampling rate                    : 48.0 KHz
Stream size                      : 435 MiB (15%)
Alignment                        : Split accross interleaves
Interleave, duration             : 42 ms (1.00 video frame)
Interleave, preload duration     : 500 ms
Title                            : English

picpicpicpic
Для увеличения картинки щелкните мышкой по превью

Этот торрент недоступен для скачивания без регистрации, однако доступен по публичной magnet-ссылке (источники с публичных трекеров). Перед использованием ссылки прочтите, пожалуйста Пользовательское соглашение, а также как можно дольше оставайтесь на раздаче! Для того, чтобы скачать сам торрент-файл (который видит больше источников), а также для того, чтобы поблагодарить релизера, вам необходимо зарегистрироваться. Если регистрироваться лень - вы можете также попробовать скачать релиз по нашим партнерским ссылкам ниже.

[underverse.su].t42475.torrent
Трекер: Зарегистрирован   [ 08.08.2014 16:34 ]  

Статус: проверено (by Паукан at 11.08.2014 08:52)
Поблагодарили: 1 человек
Тип торрента: публичный - доступные источники с открытых трекеров: 
Размер: 2,9 GB (занимает 2/3 DVDR, для записи нужно 1 болванка DVDR/RW)
 
 
Похожие темы
Форум Тема Автор Торрент Отв. Посл. сооб.
Зарубежное кино [DVDRip, Low-Res HDRip, и т.д.] Первый мститель / Captain America: The First Avenger (Джо Джонстон ) [2011 г., фантастика, боевик, триллер, приключения , HDRip] МУХА~
0 | 0

1 | 1079

28

16.10.2011 08:59

Зарубежное кино [DVDRip, Low-Res HDRip, и т.д.] Первый мститель / Captain America: The First Avenger (Джо Джонстон / Joe Johnston) [2011 г., фантастика, боевик, приключения, BDRip] Dub Gaarochi
24 | 0

0 | 1555

50

11.04.2013 18:31

Зарубежное кино [DVDRip, Low-Res HDRip, и т.д.] Первый мститель: Другая война / Captain America: The Winter Soldier (Энтони Руссо, Джо Руссо, Джосс Уидон) [2014 г., фантастика, боевик, приключения, HDRip] Dub [лицензия] Паукан
12 | 0

0 | 1736

135

01.08.2014 07:40

Зарубежное кино [DVDRip, Low-Res HDRip, и т.д.] Первый мститель: Другая война / Captain America: The Winter Soldier (Энтони Руссо, Джо Руссо) [2014 г., фантастика, боевик, приключения, HDRip] Dub [лицензия] Паукан
6 | 1

0 | 1882

174

01.08.2014 07:44

Зарубежное кино [DVDRip, Low-Res HDRip, и т.д.] Первый мститель: Другая война / Captain America: The Winter Soldier (Энтони Руссо / Anthony Russo, Джо Руссо / Joe Russo) [2014 г., фантастика, боевик, приключения, BDRip] Dub 90ytr90
32 | 0

0 | 474

13

31.01.2015 22:15

Зарубежное кино [DVDRip, Low-Res HDRip, и т.д.] Первый мститель: Другая война / Captain America: The Winter Soldier (Энтони Руссо / Anthony Russo, Джо Руссо / Joe Russo) [2014 г., фантастика, боевик, приключения, BDRip] Dub 90ytr90
8 | 0

0 | 491

17

31.01.2015 22:15

Зарубежное кино [DVDRip, Low-Res HDRip, и т.д.] Первый мститель: Другая война / Captain America: The Winter Soldier (Энтони Руссо / Anthony Russo, Джо Руссо / Joe Russo) [2014 г., фантастика, боевик, приключения, BDRip-AVC] Dub + Original (Eng) +... 90ytr90
1 | 0

0 | 498

16

31.01.2015 22:16

T Зарубежное кино [DVDRip, Low-Res HDRip, и т.д.] Первый мститель: Противостояние / Captain America: Civil War (Энтони Руссо, Джо Руссо) [2016 г., фантастика, боевик, приключения, HDRip] Dub (iTunes) makkol
462 | 3

0 | 429

21

29.08.2016 22:24

T Зарубежное кино [DVDRip, Low-Res HDRip, и т.д.] Первый мститель: Противостояние / Captain America: Civil War (Энтони Руссо / Anthony Russo, Джо Руссо / Joe Russo) [2016 г., фантастика, боевик, триллер, приключения, HDRip] Dub (iTunes) 90ytr90
677 | 18

0 | 570

34

30.08.2016 08:52

T Зарубежное кино [DVDRip, Low-Res HDRip, и т.д.] Первый мститель: Противостояние / Captain America: Civil War (Энтони Руссо / Anthony Russo, Джо Руссо / Joe Russo) [2016 г., фантастика, боевик, триллер, приключения, HDRip] Dub (iTunes) + Original... 90ytr90
13 | 1

0 | 459

15

30.08.2016 19:08


Яндекс.Метрика powered by Sphinx


В Н И М А Н И Е
Сайт не распространяет и не хранит электронные версии произведений, а лишь бесплатно и без коммерческой выгоды (не требуя взамен платы,
SMS и т.д.) предоставляет доступ к создаваемому пользователями каталогу ссылок на торрент-файлы, которые содержат только списки хеш-сумм.
Убедительная просьба с жалобами обращаться напрямую к пользователю, разместившему торрент файл.

Вверх