Loading...
Error

2 спальни, 1 ванная / 2 Bedroom 1 Bath (Стэнли Юнг) [2014 г., ужасы, триллер, SATRip] MVO

Статистика раздачи
Размер:  1,36 GB   |    Зарегистрирован:  2 года 3 месяца   |    Скачан:  13 раз
Сидов:  1  |  0 KB/s  ]   Личеров:  0  |  0 KB/s  ]

* - сиды/пиры с внешних источников

   
 
Автор Сообщение

Паукан Пол:Муж

06-Авг-2014 13:36

2 спальни, 1 ванная / 2 Bedroom 1 Bath


Название: 2 спальни, 1 ванная
Оригинальное название: 2 Bedroom 1 Bath
Год выхода: 2014
Жанр: Ужасы, триллер
Режиссер: Стэнли Юнг
Актеры фильма: Мишель Хикс, Эндрю В. Уолкер, Эрик Робертс, Ди Уоллес-Стоун, Костас Мэндилор, Шошана Буш, Шелби Янг, Эйден Флауэрс, Джек Доннер, Руби Лу Смит

Описание:
Молодая пара, Кевин и Рейчел, переезжают в дом, который им видится идеальным для создания новой семьи. Вскоре выясняется, что Рейчел беременна и, казалось бы, счастью супругам нет предела, но с приятной новостью приходят и загадочные, ужасающие события. Кевину начинают сниться кошмары, которые не перестают его преследовать даже наяву, а Рейчел не дает покоя призрак в красном платье. Чем больше некогда счастливая пара пытается распутать причины происходящего, тем больше они понимают, что все события сосредоточены вокруг рождения их будущего ребенка.



Страна: США
Студия: Al Bravo Films, Chemical mind studios
Продолжительность: 01:26:50
Перевод: Профессиональный многоголосый

Кодек: XviD
Качество: SATRip
Видео: 1853 Кбит/с, 720x384, 25.000 кадр/с
Аудио: Русский (АС3, 6 ch, 384 Кбит/с)

Семпл
Общее
Полное имя : 2.spalni.1.vanna.2014.SATRip.MediaClub.avi
Формат : AVI
Формат/Информация : Audio Video Interleave
Размер файла : 1,36 Гбайт
Продолжительность : 1 ч. 26 м.
Общий поток : 2246 Кбит/сек
Название фильма : MediaClub
Программа кодирования : VirtualDubMod 1.5.10.2 (build 2540/release)
Библиотека кодирования : VirtualDubMod build 2540/release

Видео
Идентификатор : 0
Формат : MPEG-4 Visual
Профиль формата : Advanced Simple@L5
Параметр BVOP формата : 2
Параметр QPel формата : Нет
Параметр GMC формата : Без точки перехода
Параметр матрицы формата : Default (MPEG)
Идентификатор кодека : XVID
Идентификатор кодека/Подсказка : XviD
Продолжительность : 1 ч. 26 м.
Битрейт : 1853 Кбит/сек
Ширина : 720 пикселей
Высота : 384 пикселя
Соотношение сторон : 1,85:1
Частота кадров : 25,000 кадров/сек
Цветовое пространство : YUV
Субдискретизация насыщенности : 4:2:0
Битовая глубина : 8 бит
Тип развёртки : Прогрессивная
Метод сжатия : С потерями
Бит/(Пиксели*Кадры) : 0.268
Размер потока : 1,12 Гбайт (82%)
Библиотека кодирования : XviD 65

Аудио
Идентификатор : 1
Формат : AC-3
Формат/Информация : Audio Coding 3
Расширение режима : CM (complete main)
Параметр Endianness формата : Big
Идентификатор кодека : 2000
Продолжительность : 1 ч. 26 м.
Вид битрейта : Постоянный
Битрейт : 384 Кбит/сек
Каналы : 6 каналов
Расположение каналов : Front: L C R, Side: L R, LFE
Частота : 48,0 КГц
Битовая глубина : 16 бит
Метод сжатия : С потерями
Размер потока : 238 Мбайт (17%)
Выравнивание : Разделение по промежуткам
Продолжительность промежутка : 40 мс. (1,00 видеокадр)
Время предзагрузки промежутка : 500 мс.
pic pic pic
Для увеличения картинки щелкните мышкой по превью

Этот торрент недоступен для скачивания без регистрации, однако доступен по публичной magnet-ссылке (источники с публичных трекеров). Перед использованием ссылки прочтите, пожалуйста Пользовательское соглашение, а также как можно дольше оставайтесь на раздаче! Для того, чтобы скачать сам торрент-файл (который видит больше источников), а также для того, чтобы поблагодарить релизера, вам необходимо зарегистрироваться. Если регистрироваться лень - вы можете также попробовать скачать релиз по нашим партнерским ссылкам ниже.

[underverse.su].t42411.torrent
Трекер: Зарегистрирован   [ 06.08.2014 13:36 ]  

Статус: проверено (by Паукан at 06.08.2014 13:37)
Поблагодарили: 1 человек
Тип торрента: публичный - доступные источники с открытых трекеров: 
Размер: 1,36 GB (занимает 0,31 DVDR, для записи нужно 1 болванка DVDR/RW)
 
 
Похожие темы
Форум Тема Автор Торрент Отв. Посл. сооб.
Зарубежное кино [DVDRip, Low-Res HDRip, и т.д.] 2 спальни, 1 ванная / 2 Bedroom 1 Bath (Стэнли Юнг) [2014 г., Ужасы, Триллер, HDTVRip] MVO (RUS) Ведьмочка
105 | 1

0 | 419

6

17.10.2014 11:35

Зарубежное кино [DVDRip, Low-Res HDRip, и т.д.] 2 спальни, 1 ванная / 2 Bedroom 1 Bath (Стэнли Юнг) [2014 г., Ужасы, Триллер, HDTVRip-AVC] MVO (RUS) Ведьмочка
7 | 0

2 | 530

5

17.10.2014 14:28

Nataliya8791 Пол:Жен

09-Авг-2014 06:13

Плохое и слизанное со всех всевозможных фильмов с подобным сюжетом кино

Яндекс.Метрика powered by Sphinx


В Н И М А Н И Е
Сайт не распространяет и не хранит электронные версии произведений, а лишь бесплатно и без коммерческой выгоды (не требуя взамен платы,
SMS и т.д.) предоставляет доступ к создаваемому пользователями каталогу ссылок на торрент-файлы, которые содержат только списки хеш-сумм.
Убедительная просьба с жалобами обращаться напрямую к пользователю, разместившему торрент файл.

Вверх