Loading...
Error

Пластик / Plastic (Джулиан Джилби / Julian Gilbey) [2014 г., боевик, драма, комедия, криминал, DVDRip] Dub

Статистика раздачи
Размер:  1,46 GB   |    Зарегистрирован:  2 года 3 месяца   |    Скачан:  51 раз

Полного источника не было: 28 дней

Сидов:  0  |  0 KB/s  ]   Личеров:  0  |  0 KB/s  ]

* - сиды/пиры с внешних источников

   
 
Автор Сообщение

Паукан Пол:Муж

05-Авг-2014 09:26

Пластик / Plastic



Страна: Великобритания / Gateway Films

Жанр: боевик, драма, комедия, криминал
Год выпуска: 2014
Продолжительность: 01:37:13

Перевод: Профессиональный (дублированный)
Cубтитры: нет
Оригинальная аудиодорожка: нет

Режиссёр: Джулиан Джилби / Julian Gilbey

В фильме снимались: Эдвард Спелирс, Уилл Поултер, Элфи Оуэн-Аллен, Себастьян Де Соуза, Эмма Ригби, Томас Кречман, Грэм МакТавиш, Малез Джоу, Терри Стоун, Эшли Чин...

Роли дублировали: Дмитрий Поляновский, Артем Лысков

Описание: Фильм основан на реальной истории. Банде друзей удалось проникнуть в одну из самых больших в мире компаний, которая работает с кредитными картами. Им удается провернуть одну из самых дерзких краж в британской истории.

Сэмпл

Качество: DVDRip / DVD5 R5 от "CD Land"
Формат: AVI

Видео: 720x304 (2.35:1), XViD 1688 Кбит/сек / 25.000 fps / Бит/(Пиксели*Кадры) : 0.308
Аудио: Dolby Digital Audio Russian 448 kbps 5.1 / 48 kHz / 448 kbps
Общее
Полное имя : Plastik.2014.D.DVDRip_[New-Team]_by_avproh.avi
Формат : AVI
Формат/Информация : Audio Video Interleave
Размер файла : 1,46 Гбайт
Продолжительность : 1 ч. 37 м.
Общий поток : 2145 Кбит/сек
Программа кодирования : VirtualDubMod 1.5.10.3 | www.virtualdub-fr.org || (build 2550/release)
Библиотека кодирования : VirtualDubMod build 2550/release

Видео
Идентификатор : 0
Формат : MPEG-4 Visual
Профиль формата : Advanced Simple@L5
Параметр BVOP формата : 1
Параметр QPel формата : Нет
Параметр GMC формата : Без точки перехода
Параметр матрицы формата : Выборочная
Идентификатор кодека : XVID
Идентификатор кодека/Подсказка : XviD
Продолжительность : 1 ч. 37 м.
Битрейт : 1688 Кбит/сек
Ширина : 720 пикселей
Высота : 304 пикселя
Соотношение сторон : 2,35:1
Частота кадров : 25,000 кадров/сек
Цветовое пространство : YUV
Субдискретизация насыщенности : 4:2:0
Битовая глубина : 8 бит
Тип развёртки : Прогрессивная
Метод сжатия : С потерями
Бит/(Пиксели*Кадры) : 0.308
Размер потока : 1,15 Гбайт (79%)
Библиотека кодирования : XviD 73

Аудио
Идентификатор : 1
Формат : AC-3
Формат/Информация : Audio Coding 3
Расширение режима : CM (complete main)
Параметр Endianness формата : Big
Идентификатор кодека : 2000
Продолжительность : 1 ч. 37 м.
Вид битрейта : Постоянный
Битрейт : 448 Кбит/сек
Каналы : 6 каналов
Расположение каналов : Front: L C R, Side: L R, LFE
Частота : 48,0 КГц
Битовая глубина : 16 бит
Метод сжатия : С потерями
Размер потока : 312 Мбайт (21%)
Выравнивание : Разделение по промежуткам
Продолжительность промежутка : 40 мс. (1,00 видеокадр)
Время предзагрузки промежутка : 500 мс.
pic pic pic
Для увеличения картинки щелкните мышкой по превью

Этот торрент недоступен для скачивания без регистрации, однако доступен по публичной magnet-ссылке (источники с публичных трекеров). Перед использованием ссылки прочтите, пожалуйста Пользовательское соглашение, а также как можно дольше оставайтесь на раздаче! Для того, чтобы скачать сам торрент-файл (который видит больше источников), а также для того, чтобы поблагодарить релизера, вам необходимо зарегистрироваться. Если регистрироваться лень - вы можете также попробовать скачать релиз по нашим партнерским ссылкам ниже.

[underverse.su].t42359.torrent
Трекер: Зарегистрирован   [ 05.08.2014 09:26 ]  

Статус: проверено (by Паукан at 05.08.2014 09:26)
Поблагодарили: 3 человека
Тип торрента: публичный - доступные источники с открытых трекеров: 
Размер: 1,46 GB (занимает 1/3 DVDR, для записи нужно 1 болванка DVDR/RW)
 
 
Похожие темы
Форум Тема Автор Торрент Отв. Посл. сооб.
T Зарубежное кино [DVDRip, Low-Res HDRip, и т.д.] Пластик / Plastic (Джулиан Джилби) [2014 г., боевик, драма, комедия, криминал, WEB-DLRip] Dub [iTunes] Паукан
4 | 0

0 | 1392

61

07.07.2014 07:21

Зарубежное кино [DVDRip, Low-Res HDRip, и т.д.] Пластик / Plastic (Джулиан Джилби) [2014 г., Боевик, Драма, Комедия, Криминал, HDRip-AVC] Dub (RUS, Лицензия) + Original (ENG) + Subs (ENG) Ведьмочка
52 | 0

0 | 298

1

28.09.2014 10:07

Зарубежное кино [DVDRip, Low-Res HDRip, и т.д.] Пластик / Plastic (Джулиан Джилби) [2014 г., Боевик, Драма, Комедия, Криминал, HDRip] Dub (RUS, Лицензия) Ведьмочка
2 | 0

0 | 450

32

28.09.2014 10:10

Зарубежное кино [DVD / HDDVD / BD / Remux] Пластик / Plastic (Джулиан Джилби) [2014 г., Боевик, Драма, Комедия, Криминал, Blu-Ray Remux 1080p] Dub (RUS, Лицензия) + Original (ENG) + Subs (ENG) Ведьмочка
2 | 0

0 | 770

11

28.09.2014 22:19

Зарубежное кино [HDDVDRip / BDRip / WEB-DL / HDTV 1080/720р] Пластик / Plastic (Джулиан Джилби) [2014 г., Боевик, Драма, Комедия, Криминал, BDRip 1080p] Dub (RUS, Лицензия) + Original (ENG) + Subs (ENG) Ведьмочка
7 | 1

0 | 267

4

28.09.2014 10:00

Зарубежное кино [HDDVDRip / BDRip / WEB-DL / HDTV 1080/720р] Пластик / Plastic (Джулиан Джилби) [2014 г., Боевик, Драма, Комедия, Криминал, BDRip 720p] Dub (RUS, Лицензия) + Original (ENG) + Subs (ENG) Ведьмочка
4 | 0

0 | 315

7

28.09.2014 10:03


Яндекс.Метрика powered by Sphinx


В Н И М А Н И Е
Сайт не распространяет и не хранит электронные версии произведений, а лишь бесплатно и без коммерческой выгоды (не требуя взамен платы,
SMS и т.д.) предоставляет доступ к создаваемому пользователями каталогу ссылок на торрент-файлы, которые содержат только списки хеш-сумм.
Убедительная просьба с жалобами обращаться напрямую к пользователю, разместившему торрент файл.

Вверх