Loading...
Error

Испанец (Александр Цацуев) [2012 г., драма, DVDRip]

Статистика раздачи
Размер:  1,46 GB   |    Зарегистрирован:  2 года 4 месяца   |    Скачан:  17 раз

Полного источника не было: 6 месяцев

Сидов:  0  |  0 KB/s  ]   Личеров:  0  |  0 KB/s  ]

* - сиды/пиры с внешних источников

   
 
Автор Сообщение

Паукан Пол:Муж

05-Авг-2014 08:54

Испанец



Страна: Россия / Мосфильм

Жанр: драма
Год выпуска: 2012
Продолжительность: 01:29:38

Перевод: Не требуется
Cубтитры: нет
Оригинальная аудиодорожка: русский

Режиссер: Александр Цацуев

В фильме снимались: Сергей Шнырев, Мария Баева, Александр Пашутин, Артем Панчик, Владимир Панчик, Юлия Галкина, Елена Шилова, Тимофей Каратаев, Сергей Малюгов, Олег Харитонов

Описание: Эта история, основанная на реальных событиях, рассказывает о жизни знаменитого испанского летчика Хосе Фернандеса. В конце тридцатых годов двадцатого века он приехал в СССР для службы в Красной Армии. Бравому летчику удается пройти всю Вторую мировую войну и остаться в живых. На непростом пути войны Хосе встречает русскую девушку Машу, с которой у него завязывается долгий роман. Ради своей любви летчик решает остаться в Советском Союзе. Но в то время интернациональные браки не слишком приветствовались властями. Они вынуждают Хосе уехать в Испанию, даже несмотря на то, что его возлюбленная ждет ребенка. Но через много лет внуку Хосе, ставшему авиамехаником, суждено будет участвовать в продолжении истории его предка.

Сэмпл

Качество: DVDRip / DVD5 R5 от «Lizard Cinema Trade»
Формат: AVI

Видео: 720x304 (2.35:1), 25.000 fps, XviD, ~2124 kbps avg, 0.388 bit/pix
Аудио: 48 kHz, Dolby AC3, 2 ch, 192 kbps, русский
Общее
Полное имя : Ispanets.2012.O.DVDRip_[New-Team]_by_avproh.avi
Формат : AVI
Формат/Информация : Audio Video Interleave
Размер файла : 1,46 Гбайт
Продолжительность : 1 ч. 29 м.
Общий поток : 2326 Кбит/сек
Программа кодирования : VirtualDubMod 1.5.10.3 | www.virtualdub-fr.org || (build 2550/release)
Библиотека кодирования : VirtualDubMod build 2550/release

Видео
Идентификатор : 0
Формат : MPEG-4 Visual
Профиль формата : Advanced Simple@L5
Параметр BVOP формата : 1
Параметр QPel формата : Нет
Параметр GMC формата : Без точки перехода
Параметр матрицы формата : Выборочная
Идентификатор кодека : XVID
Идентификатор кодека/Подсказка : XviD
Продолжительность : 1 ч. 29 м.
Битрейт : 2124 Кбит/сек
Ширина : 720 пикселей
Высота : 304 пикселя
Соотношение сторон : 2,35:1
Частота кадров : 25,000 кадров/сек
Цветовое пространство : YUV
Субдискретизация насыщенности : 4:2:0
Битовая глубина : 8 бит
Тип развёртки : Прогрессивная
Метод сжатия : С потерями
Бит/(Пиксели*Кадры) : 0.388
Размер потока : 1,33 Гбайт (91%)
Библиотека кодирования : XviD 73

Аудио
Идентификатор : 1
Формат : AC-3
Формат/Информация : Audio Coding 3
Расширение режима : CM (complete main)
Параметр Endianness формата : Big
Идентификатор кодека : 2000
Продолжительность : 1 ч. 29 м.
Вид битрейта : Постоянный
Битрейт : 192 Кбит/сек
Каналы : 2 канала
Расположение каналов : Front: L R
Частота : 48,0 КГц
Битовая глубина : 16 бит
Метод сжатия : С потерями
Размер потока : 123 Мбайт (8%)
Выравнивание : Разделение по промежуткам
Продолжительность промежутка : 40 мс. (1,00 видеокадр)
Время предзагрузки промежутка : 500 мс.
pic pic pic
Для увеличения картинки щелкните мышкой по превью

Этот торрент недоступен для скачивания без регистрации, однако доступен по публичной magnet-ссылке (источники с публичных трекеров). Перед использованием ссылки прочтите, пожалуйста Пользовательское соглашение, а также как можно дольше оставайтесь на раздаче! Для того, чтобы скачать сам торрент-файл (который видит больше источников), а также для того, чтобы поблагодарить релизера, вам необходимо зарегистрироваться. Если регистрироваться лень - вы можете также попробовать скачать релиз по нашим партнерским ссылкам ниже.

[underverse.su].t42358.torrent
Трекер: Зарегистрирован   [ 05.08.2014 08:54 ]  

Статус: проверено (by Паукан at 05.08.2014 08:54)
Поблагодарили: пока никто не поблагодарил...
Тип торрента: публичный - доступные источники с открытых трекеров: 
Размер: 1,46 GB (занимает 1/3 DVDR, для записи нужно 1 болванка DVDR/RW)
 
 

Яндекс.Метрика powered by Sphinx


В Н И М А Н И Е
Сайт не распространяет и не хранит электронные версии произведений, а лишь бесплатно и без коммерческой выгоды (не требуя взамен платы,
SMS и т.д.) предоставляет доступ к создаваемому пользователями каталогу ссылок на торрент-файлы, которые содержат только списки хеш-сумм.
Убедительная просьба с жалобами обращаться напрямую к пользователю, разместившему торрент файл.

Вверх