Loading...
Error

Оставшийся в живых / Survivor (Джон Лойд) [2014 г., фантастика, фэнтези, боевик, HDRip] VO

Статистика раздачи
Размер:  1,37 GB   |    Зарегистрирован:  2 года 4 месяца   |    Скачан:  42 раза

Полного источника не было: 2 месяца 7 дней

Сидов:  0  |  0 KB/s  ]   Личеров:  0  |  0 KB/s  ]

* - сиды/пиры с внешних источников

   
 
Автор Сообщение

Су-34 Пол:Муж

02-Авг-2014 18:23

Оставшийся в живых / Survivor


Год выпуска: 2014
Жанр: фантастика, фэнтези, боевик
Страна: США
Режиссер: Джон Лойд
В ролях: Даниэль Чачран, Кевин Сорбо, Пол Хант, Никки Поснер, Джеймс С. Моррис, Блейк Уэбб, Дебора Ли Дуглас, Эбигейл Мэйсон, Мелани Стоун
Сюжет фильма:
Как только юная Кейт Митра обнаруживает обитаемую планету для тех, кто остался от человечества, удар метеорита разрушает ее космический корабль и она терпит крушение в таинственном пустынном мире. Как Кейт, капитан Хантер и другие выжившие приземляются, но попадают в засаду банды постапокалиптических воинов и мутировавших дикарей. Кейт просыпается связанной в пещере, захваченная плотоядными пещерными существами и вдали от ее друзей. Она должна научиться доверять таинственным гуманоидам планеты для того, чтобы обогнать, перехитрить и победить орду кровожадных инопланетян и огромного волка-мутанта и спасти своих друзей и своего капитана прежде, чем они все будут съедены заживо.
Мировая премьера: 22 июля 2014

Качество видео: HDRip

Продолжительность: 01:33:03
Формат: AVI
Видео: XviD, 720х400, 1708 kbps
Аудио: русский, одноголосый закадровый [любительский], AC3 2.0, 192 kbps

Код:

D:\Torrents\Survivor.2014.L1.HDRip.1400MB.avi
   General
      Complete name : D:\Torrents\Survivor.2014.L1.HDRip.1400MB.avi
      Format : AVI
      Format/Info : Audio Video Interleave
      File size : 1.37 GiB
      Duration : 1h 33mn
      Overall bit rate : 2 106 Kbps
      Writing application : VirtualDubMod 1.5.10.3 | www.virtualdub-fr.org || (build 2550/release)
      Writing library : VirtualDubMod build 2550/release
   Video #0
      ID : 0
      Format : MPEG-4 Visual
      Format profile : Advanced Simple@L5
      Format settings, BVOP : 1
      Format settings, QPel : No
      Format settings, GMC : No warppoints
      Format settings, Matrix : Custom
      Codec ID : XVID
      Codec ID/Hint : XviD
      Duration : 1h 33mn
      Bit rate : 1 708 Kbps
      Width : 720 pixels
      Height : 400 pixels
      Display aspect ratio : 16:9
      Frame rate : 23.976 fps
      Color space : YUV
      Chroma subsampling : 4:2:0
      Bit depth : 8 bits
      Scan type : Progressive
      Compression mode : Lossy
      Bits/(Pixel*Frame) : 0.247
      Stream size : 1.11 GiB (81%)
      Writing library : XviD 73
   Audio #1
      ID : 1
      Format : AC-3
      Format/Info : Audio Coding 3
      Mode extension : CM (complete main)
      Format settings, Endianness : Big
      Codec ID : 2000
      Duration : 1h 33mn
      Bit rate mode : Constant
      Bit rate : 192 Kbps
      Channel count : 2 channels
      Channel positions : Front: L R
      Sampling rate : 48.0 KHz
      Bit depth : 16 bits
      Compression mode : Lossy
      Stream size : 128 MiB (9%)
      Alignment : Split accross interleaves
      Interleave, duration : 42 ms (1.00 video frame)
      Interleave, preload duration : 500 ms
   Audio #2
      ID : 2
      Format : AC-3
      Format/Info : Audio Coding 3
      Mode extension : CM (complete main)
      Format settings, Endianness : Big
      Codec ID : 2000
      Duration : 1h 33mn
      Bit rate mode : Constant
      Bit rate : 192 Kbps
      Channel count : 2 channels
      Channel positions : Front: L R
      Sampling rate : 48.0 KHz
      Bit depth : 16 bits
      Compression mode : Lossy
      Stream size : 128 MiB (9%)
      Alignment : Split accross interleaves
      Interleave, duration : 42 ms (1.00 video frame)
      Interleave, preload duration : 500 ms
Семпл: https://yadi.sk/i/eqKHNNC7Yv6eE

picpicpic
Для увеличения картинки щелкните мышкой по превью

Этот торрент недоступен для скачивания без регистрации, однако доступен по публичной magnet-ссылке (источники с публичных трекеров). Перед использованием ссылки прочтите, пожалуйста Пользовательское соглашение, а также как можно дольше оставайтесь на раздаче! Для того, чтобы скачать сам торрент-файл (который видит больше источников), а также для того, чтобы поблагодарить релизера, вам необходимо зарегистрироваться. Если регистрироваться лень - вы можете также попробовать скачать релиз по нашим партнерским ссылкам ниже.

[underverse.su].t42286.torrent
Трекер: Зарегистрирован   [ 02.08.2014 18:23 ]  

Статус: проверено (by Ведьмочка at 02.08.2014 18:28)
Поблагодарили: 1 человек
Тип торрента: публичный - доступные источники с открытых трекеров: 
Размер: 1,37 GB (занимает 0,31 DVDR, для записи нужно 1 болванка DVDR/RW)
 
 
Похожие темы
Форум Тема Автор Торрент Отв. Посл. сооб.
Зарубежное кино [DVDRip, Low-Res HDRip, и т.д.] Оставшийся в живых / Survivor (Джон Лойд / John Lyde) [2014 г., фантастика, фэнтези, боевик, HDRip] VO Паукан
8 | 0

0 | 1187

19

04.08.2014 09:38

Зарубежное кино [DVDRip, Low-Res HDRip, и т.д.] Оставшийся / The Remaining (Кэйси Ла Скала / Casey La Scala) [2014 г., фантастика, ужасы, триллер, HDRip] DVO (DeadSno & den904) 90ytr90
0 | 0

0 | 814

19

17.01.2015 07:49

Зарубежное кино [DVDRip, Low-Res HDRip, и т.д.] Оставшийся / The Remaining (Кэйси Ла Скала) [2014 г., фантастика, ужасы, триллер, HDRip-AVC] DVO [DeadSno & den904] Паукан
0 | 0

0 | 680

13

20.01.2015 17:19

Зарубежное кино [DVDRip, Low-Res HDRip, и т.д.] Оставшийся / The Remaining (Кэйси Ла Скала / Casey La Scala) [2014 г., фантастика, ужасы, триллер, HDRip] MVO 90ytr90
3 | 0

0 | 282

4

08.02.2015 09:44

Зарубежное кино [DVDRip, Low-Res HDRip, и т.д.] Оставшийся / The Remaining (Кэйси Ла Скала / Casey La Scala) [2014 г., ужасы, триллер, BDRip-AVC] MVO + Original (Eng) + Sub (Eng) 90ytr90
10 | 0

0 | 241

5

11.02.2015 12:26

Зарубежное кино [HDDVDRip / BDRip / WEB-DL / HDTV 1080/720р] Оставшийся / The Remaining (Кэйси Ла Скала / Casey La Scala) [2014 г., фантастика, ужасы, триллер, BDRip 720p] MVO + Original (Eng) + Sub (Eng) 90ytr90
12 | 2

0 | 285

4

08.02.2015 09:47


Яндекс.Метрика powered by Sphinx


В Н И М А Н И Е
Сайт не распространяет и не хранит электронные версии произведений, а лишь бесплатно и без коммерческой выгоды (не требуя взамен платы,
SMS и т.д.) предоставляет доступ к создаваемому пользователями каталогу ссылок на торрент-файлы, которые содержат только списки хеш-сумм.
Убедительная просьба с жалобами обращаться напрямую к пользователю, разместившему торрент файл.

Вверх