Loading...
Error

Первый мститель: Другая война / Captain America: The Winter Soldier (Энтони Руссо, Джо Руссо, Джосс Уидон) [2014 г., фантастика, боевик, приключения, HDRip] Dub [лицензия]

Статистика раздачи
Размер:  2,05 GB   |    Зарегистрирован:  2 года 4 месяца   |    Скачан:  135 раз

Полного источника не было: 1 день 14 часов

Сидов:  0  |  0 KB/s  ]   Личеров:  0  |  0 KB/s  ]

* - сиды/пиры с внешних источников

   
 
Автор Сообщение

Паукан Пол:Муж

01-Авг-2014 07:40

Первый мститель: Другая война / Captain America: The Winter Soldier


Название: Первый мститель: Другая война
Оригинальное название: Captain America: The Winter Soldier
Год выпуска: 2014
Жанр: фантастика, боевик, приключения
Режиссёр: Энтони Руссо, Джо Руссо, Джосс Уидон
В главных ролях: Крис Эванс, Скарлетт Йоханссон, Роберт Редфорд, Сэмюэл Л. Джексон, Себастьян Стэн, Энтони Маки, Коби Смолдерс, Фрэнк Грилло, Максимилиано Эрнандес, Эмили ВанКэмп

Описание: После беспрецедентных событий, впервые собравших вместе команду Мстителей, Стив Роджерс, известный также как Капитан Америка, оседает в Вашингтоне и пытается приспособиться к жизни в современном мире. Но покой этому герою только снится — пытаясь помочь коллеге из агентства Щ. И. Т, Стив оказывается в центре событий, грозящих катастрофой мирового масштаба. Для того, чтобы разоблачить злодейский заговор, Капитан Америка объединяется с Черной вдовой. К ним также присоединяется новый соратник, известный как Сокол, однако никто из них даже не подозревает, на что способен новый враг.



Выпущено: США / Marvel Entertainment, Marvel Studios
Продолжительность: 02:15:54
Озвучивание: Дублированное [лицензия]

Формат: AVI (XviD)
Качество: HDRip
Видео: 1700 kb/s, 720x304
Звук: AC3, 448 kb/s (6 ch)

Семпл
General
Complete name : 1yj.MCt1telj.DPugaYa.B01Ha.2014.D.HDRip.2100Mb.avi
Format : AVI
Format/Info : Audio Video Interleave
Format profile : OpenDML
File size : 2.05 GiB
Duration : 2h 15mn
Overall bit rate : 2 160 Kbps
Writing application : VirtualDubMod 1.5.10.2 (build 2540/release)
Writing library : VirtualDubMod build 2540/release

Video
ID : 0
Format : MPEG-4 Visual
Format profile : Advanced Simple@L5
Format settings, BVOP : 2
Format settings, QPel : No
Format settings, GMC : No warppoints
Format settings, Matrix : Default (MPEG)
Codec ID : XVID
Codec ID/Hint : XviD
Duration : 2h 15mn
Bit rate : 1 700 Kbps
Width : 720 pixels
Height : 304 pixels
Display aspect ratio : 2.35:1
Frame rate : 23.976 fps
Color space : YUV
Chroma subsampling : 4:2:0
Bit depth : 8 bits
Scan type : Progressive
Compression mode : Lossy
Bits/(Pixel*Frame) : 0.324
Stream size : 1.61 GiB (79%)
Writing library : XviD 1.2.1 (UTC 2008-12-04)

Audio
ID : 1
Format : AC-3
Format/Info : Audio Coding 3
Mode extension : CM (complete main)
Format settings, Endianness : Big
Codec ID : 2000
Duration : 2h 15mn
Bit rate mode : Constant
Bit rate : 448 Kbps
Channel(s) : 6 channels
Channel positions : Front: L C R, Side: L R, LFE
Sampling rate : 48.0 KHz
Bit depth : 16 bits
Compression mode : Lossy
Stream size : 435 MiB (21%)
Alignment : Split accross interleaves
Interleave, duration : 42 ms (1.00 video frame)
Interleave, preload duration : 500 ms
pic pic pic
Для увеличения картинки щелкните мышкой по превью

Этот торрент недоступен для скачивания без регистрации, однако доступен по публичной magnet-ссылке (источники с публичных трекеров). Перед использованием ссылки прочтите, пожалуйста Пользовательское соглашение, а также как можно дольше оставайтесь на раздаче! Для того, чтобы скачать сам торрент-файл (который видит больше источников), а также для того, чтобы поблагодарить релизера, вам необходимо зарегистрироваться. Если регистрироваться лень - вы можете также попробовать скачать релиз по нашим партнерским ссылкам ниже.

[underverse.su].t42237.torrent
Трекер: Зарегистрирован   [ 01.08.2014 07:40 ]  

Статус: проверено (by Паукан at 01.08.2014 07:40)
Поблагодарили: 7 человек
Тип торрента: публичный - доступные источники с открытых трекеров: 
Размер: 2,05 GB (занимает 0,47 DVDR, для записи нужно 1 болванка DVDR/RW)
 
 
Похожие темы
Форум Тема Автор Торрент Отв. Посл. сооб.
Зарубежное кино [DVDRip, Low-Res HDRip, и т.д.] Первый мститель / Captain America: The First Avenger (Джо Джонстон ) [2011 г., фантастика, боевик, триллер, приключения , HDRip] МУХА~
0 | 0

1 | 1077

28

16.10.2011 08:59

Зарубежное кино [DVDRip, Low-Res HDRip, и т.д.] Первый мститель / Captain America: The First Avenger (Джо Джонстон / Joe Johnston) [2011 г., фантастика, боевик, приключения, BDRip] Dub Gaarochi
24 | 0

0 | 1552

50

11.04.2013 18:31

Зарубежное кино [DVDRip, Low-Res HDRip, и т.д.] Первый мститель: Другая война / Captain America: The Winter Soldier (Энтони Руссо, Джо Руссо) [2014 г., фантастика, боевик, приключения, HDRip] Dub [лицензия] Паукан
1 | 0

0 | 1879

174

01.08.2014 07:44

Зарубежное кино [DVDRip, Low-Res HDRip, и т.д.] Первый мститель: Другая война / Captain America: The Winter Soldier (Энтони Руссо / Anthony Russo, Джо Руссо / Joe Russo) [2014 г., фантастика, боевик, приключения, BDRip] Dub 90ytr90
32 | 0

0 | 472

13

31.01.2015 22:15

Зарубежное кино [DVDRip, Low-Res HDRip, и т.д.] Первый мститель: Другая война / Captain America: The Winter Soldier (Энтони Руссо / Anthony Russo, Джо Руссо / Joe Russo) [2014 г., фантастика, боевик, приключения, BDRip] Dub 90ytr90
8 | 0

0 | 487

17

31.01.2015 22:15

Зарубежное кино [DVDRip, Low-Res HDRip, и т.д.] Первый мститель: Другая война / Captain America: The Winter Soldier (Энтони Руссо / Anthony Russo, Джо Руссо / Joe Russo) [2014 г., фантастика, боевик, приключения, BDRip-AVC] Dub + Original (Eng) +... 90ytr90
1 | 0

0 | 493

16

31.01.2015 22:16

T Зарубежное кино [DVDRip, Low-Res HDRip, и т.д.] Первый мститель: Противостояние / Captain America: Civil War (Энтони Руссо, Джо Руссо) [2016 г., фантастика, боевик, приключения, HDRip] Dub (iTunes) makkol
462 | 3

0 | 422

20

29.08.2016 22:24

T Зарубежное кино [DVDRip, Low-Res HDRip, и т.д.] Первый мститель: Противостояние / Captain America: Civil War (Энтони Руссо / Anthony Russo, Джо Руссо / Joe Russo) [2016 г., фантастика, боевик, триллер, приключения, HDRip] Dub (iTunes) 90ytr90
645 | 11

0 | 562

34

30.08.2016 08:52

T Зарубежное кино [DVDRip, Low-Res HDRip, и т.д.] Первый мститель: Противостояние / Captain America: Civil War (Энтони Руссо / Anthony Russo, Джо Руссо / Joe Russo) [2016 г., фантастика, боевик, триллер, приключения, HDRip] Dub (iTunes) + Original... 90ytr90
58 | 4

0 | 453

15

30.08.2016 19:08

Зарубежное кино HQ Первый мститель: Другая война / Captain America: The Winter Soldier (Энтони Руссо, Джо Руссо) [2014 г., фантастика, боевик, приключения, BDRip] Dub + Original HQ Underverse HQ Underverse
0 | 0

0 | 1326

47

08.08.2014 16:34


Яндекс.Метрика powered by Sphinx


В Н И М А Н И Е
Сайт не распространяет и не хранит электронные версии произведений, а лишь бесплатно и без коммерческой выгоды (не требуя взамен платы,
SMS и т.д.) предоставляет доступ к создаваемому пользователями каталогу ссылок на торрент-файлы, которые содержат только списки хеш-сумм.
Убедительная просьба с жалобами обращаться напрямую к пользователю, разместившему торрент файл.

Вверх