Loading...
Error

Цепь (1-8 серии из 8) (Дмитрий Меднов) [2009 г., Боевик, детектив, мелодрама, DVDRip]

Статистика раздачи
Размер:  3,5 GB   |    Зарегистрирован:  3 года 1 месяц   |    Скачан:  34 раза

Полного источника не было: 2 месяца 19 дней

Сидов:  0  |  0 KB/s  ]   Личеров:  0  |  0 KB/s  ]

* - сиды/пиры с внешних источников

   
 
Автор Сообщение

nemos Пол:Муж

30-Июл-2014 16:45

Цепь


Год выпуска: 2009
Жанр: Боевик, детектив, мелодрама
Страна: Россия
Режиссер: Дмитрий Меднов
В ролях: Сергей Перегудов, Алексей Макаров, Алексей Барабаш, Виктор Вержбицкий, Лилия Кондрова, Артём Федотов, Елена Кутырева, Владимир Сычёв
Сюжет фильма:
Виктор, Антон и Степан – олицетворение настоящей мужской дружбы. Ребят очень сблизила война в Чечне. Именно в этих сложных обстоятельствах стало возможным отличить настоящую дружбу от притворства, почувствовать надежное товарищеское плечо, понять, что такое братство спецназовцев. Это еще больше объединяет трех друзей, и они решают открыть свой автосалон. Честный бизнес идет в гору, но тут на горизонте появляется циничный бандит Македонский (Виктор Вержбицкий). Ему не нравится, что он не получает ничего от такого доходного предприятия. Молодые люди отказываются платить ему «дань» и тут в их жизни начинается новая война. Помимо этого, у каждого из ребят возникают сложности в личной жизни. Картина о том, что такие вещи как настоящая дружба, честь, патриотизм – совсем не архаизм. Именно объединившись, доверяя друг другу, людям легче бороться с жизненными неприятностями и выйти победителями из любой, даже самой сложной ситуации.


Качество видео: DVDRip

Продолжительность: 00:43:28 серия
Формат: AVI
Видео: XviD, 704x384 , 1 303 kbps
Аудио: русский, MP3 2.0, 128 kbps

Код:

D:\Фильмы Раздача-1\Sep.(8.serij.iz.8).2009.XviD.DVDRip.ELEKTRI4KA\Sep.08.seriy.iz.08.2009.XviD.DVDRip.ELEKTRI4KA.avi
   General
      Complete name : D:\Фильмы Раздача-1\Sep.(8.serij.iz.8).2009.XviD.DVDRip.ELEKTRI4KA\Sep.08.seriy.iz.08.2009.XviD.DVDRip.ELEKTRI4KA.avi
      Format : AVI
      Format/Info : Audio Video Interleave
      File size : 448 MiB
      Duration : 43mn 28s
      Overall bit rate : 1 441 Kbps
      Writing application : FairUse Wizard - http://fairusewizard.com
      Writing library : The best and REALLY easy backup tool
   Video #0
      ID : 0
      Format : MPEG-4 Visual
      Format profile : Advanced Simple@L5
      Format settings, BVOP : 1
      Format settings, QPel : No
      Format settings, GMC : No warppoints
      Format settings, Matrix : Default (H.263)
      Muxing mode : Packed bitstream
      Codec ID : XVID
      Codec ID/Hint : XviD
      Duration : 43mn 28s
      Bit rate : 1 303 Kbps
      Width : 704 pixels
      Height : 384 pixels
      Display aspect ratio : 1.85:1
      Frame rate : 25.000 fps
      Color space : YUV
      Chroma subsampling : 4:2:0
      Bit depth : 8 bits
      Scan type : Progressive
      Compression mode : Lossy
      Bits/(Pixel*Frame) : 0.193
      Stream size : 405 MiB (90%)
      Writing library : XviD 1.1.0 (UTC 2005-11-22)
   Audio #1
      ID : 1
      Format : MPEG Audio
      Format version : Version 1
      Format profile : Layer 3
      Mode : Joint stereo
      Mode extension : MS Stereo
      Codec ID : 55
      Codec ID/Hint : MP3
      Duration : 43mn 28s
      Bit rate mode : Constant
      Bit rate : 128 Kbps
      Channel(s) : 2 channels
      Sampling rate : 48.0 KHz
      Compression mode : Lossy
      Stream size : 39.8 MiB (9%)
      Alignment : Aligned on interleaves
      Interleave, duration : 40 ms (1.00 video frame)
      Interleave, preload duration : 504 ms
      Writing library : LAME3.97b
      Encoding settings : -m j -V 4 -q 2 -lowpass 17 -b 128
picpicpicpicpicpicpicpicpicpicpicpicpic
Для увеличения картинки щелкните мышкой по превью

Этот торрент недоступен для скачивания без регистрации, однако доступен по публичной magnet-ссылке (источники с публичных трекеров). Перед использованием ссылки прочтите, пожалуйста Пользовательское соглашение, а также как можно дольше оставайтесь на раздаче! Для того, чтобы скачать сам торрент-файл (который видит больше источников), а также для того, чтобы поблагодарить релизера, вам необходимо зарегистрироваться. Если регистрироваться лень - вы можете также попробовать скачать релиз по нашим партнерским ссылкам ниже.

[underverse.su].t42204.torrent
Трекер: Зарегистрирован   [ 30.07.2014 16:45 ]  

Статус: проверено (by nemos at 30.07.2014 16:45)
Поблагодарили: 3 человека
Тип торрента: публичный - доступные источники с открытых трекеров: 
Размер: 3,5 GB (занимает 0,8 DVDR, для записи нужно 1 болванка DVDR/RW)
 
 

Яндекс.Метрика powered by Sphinx


В Н И М А Н И Е
Сайт не распространяет и не хранит электронные версии произведений, а лишь бесплатно и без коммерческой выгоды (не требуя взамен платы,
SMS и т.д.) предоставляет доступ к создаваемому пользователями каталогу ссылок на торрент-файлы, которые содержат только списки хеш-сумм.
Убедительная просьба с жалобами обращаться напрямую к пользователю, разместившему торрент файл.

Вверх