Loading...
Error

Черная маска / Black Mask (Дэниэл Ли) [1996 г., фантастика, боевик, триллер, комедия, криминал, приключения, BDRip] DVO + Original + Sub (Rus) HQ Underverse

Статистика раздачи
Размер:  2,17 GB   |    Зарегистрирован:  2 года 4 месяца   |    Скачан:  46 раз
Сидов:  2  |  0 KB/s  ]   Личеров:  0  |  0 KB/s  ]

* - сиды/пиры с внешних источников

   
 
Автор Сообщение

HQ Underverse 

29-Июл-2014 07:13

Черная маска / Black Mask


Год выпуска: 1996
Жанр: фантастика, боевик, триллер, комедия, криминал, приключения
Страна: Гонконг
Режиссер: Дэниэл Ли
В ролях: Джет Ли, Чинг Ван Лау, Карен Мок, Франсуаза Йип, Конг Ланг, Энтони Вонг Чау-Санг, Синь Синь Сюн, Моусес Чан, Кинг-фай Чунг, Кен Лок
Сюжет фильма:
Главный герой решается на отчаянный шаг. Путем сложнейшей хирургической операции он становится невосприимчив к боли. Кто он теперь? Мститель, не знающий пощады? Теперь его лицо скрывает таинственная черная маска, приводящая врагов в состояние панического ужаса. Какая тайна скрывается за ней? Ответ могут дать только мертвые. Но мертвые не спешат выдавать свои секреты. А Черная Маска вновь вершит свой суд…

  • Мировая премьера: 9 ноября 1996

|
Качество видео: BDRip [BDRemux 1080p / undre19]

Продолжительность: 01:39:22
Формат: avi
Видео: XviD, 720x400, 2216 kbps
Аудио #1: русский, двухголосый закадровый [профессиональный, 816 dvd team], AC3 5.1, 448 kbps
Аудио #2: китайский, оригинал, AC3 5.1, 448 kbps
Субтитры: внешние, SRT, русский

Код:

General
Complete name                    : Y:\Черная маска\Black.Mask.1996.BDRip.XviD.AC3.Rus.DVO.Chn.O.HQ.Underverse.avi
Format                           : AVI
Format/Info                      : Audio Video Interleave
Format profile                   : OpenDML
File size                        : 2.17 GiB
Duration                         : 1h 39mn
Overall bit rate                 : 3 130 Kbps
Writing application              : VirtualDubMod 1.5.10.3 | www.virtualdub-fr.org || (build 2550/release)
Writing library                  : VirtualDubMod build 2550/release

Video
ID                               : 0
Format                           : MPEG-4 Visual
Format profile                   : Streaming Video@L1
Format settings, BVOP            : Yes
Format settings, QPel            : No
Format settings, GMC             : No warppoints
Format settings, Matrix          : Custom
Codec ID                         : XVID
Codec ID/Hint                    : XviD
Duration                         : 1h 39mn
Bit rate                         : 2 216 Kbps
Width                            : 720 pixels
Height                           : 400 pixels
Display aspect ratio             : 16/9
Frame rate                       : 24.000 fps
Resolution                       : 24 bits
Colorimetry                      : 4:2:0
Scan type                        : Progressive
Bits/(Pixel*Frame)               : 0.321
Stream size                      : 1.54 GiB (71%)
Writing library                  : XviD 64

Audio #1
ID                               : 1
Format                           : AC-3
Format/Info                      : Audio Coding 3
Codec ID                         : 2000
Duration                         : 1h 39mn
Bit rate mode                    : Constant
Bit rate                         : 448 Kbps
Channel(s)                       : 6 channels
Channel positions                : Front: L C R, Surround: L R, LFE
Sampling rate                    : 48.0 KHz
Stream size                      : 318 MiB (14%)
Alignment                        : Split accross interleaves
Interleave, duration             : 42 ms (1.00 video frame)
Interleave, preload duration     : 500 ms
Title                            : Russian DVO (816 dvd team)

Audio #2
ID                               : 2
Format                           : AC-3
Format/Info                      : Audio Coding 3
Codec ID                         : 2000
Duration                         : 1h 39mn
Bit rate mode                    : Constant
Bit rate                         : 448 Kbps
Channel(s)                       : 6 channels
Channel positions                : Front: L C R, Surround: L R, LFE
Sampling rate                    : 48.0 KHz
Stream size                      : 318 MiB (14%)
Alignment                        : Split accross interleaves
Interleave, duration             : 42 ms (1.00 video frame)
Interleave, preload duration     : 500 ms
Title                            : Cantonese

Релиз группы:

picpicpic
Для увеличения картинки щелкните мышкой по превью

Этот торрент недоступен для скачивания без регистрации, однако доступен по публичной magnet-ссылке (источники с публичных трекеров). Перед использованием ссылки прочтите, пожалуйста Пользовательское соглашение, а также как можно дольше оставайтесь на раздаче! Для того, чтобы скачать сам торрент-файл (который видит больше источников), а также для того, чтобы поблагодарить релизера, вам необходимо зарегистрироваться. Если регистрироваться лень - вы можете также попробовать скачать релиз по нашим партнерским ссылкам ниже.

[underverse.su].t42155.torrent
Трекер: Зарегистрирован   [ 31.07.2014 08:53 ]  

Статус: проверено (by Паукан at 31.07.2014 09:22)
Поблагодарили: 5 человек
Тип торрента: публичный - доступные источники с открытых трекеров: 
Размер: 2,17 GB (занимает 1/2 DVDR, для записи нужно 1 болванка DVDR/RW)
 
 

Яндекс.Метрика powered by Sphinx


В Н И М А Н И Е
Сайт не распространяет и не хранит электронные версии произведений, а лишь бесплатно и без коммерческой выгоды (не требуя взамен платы,
SMS и т.д.) предоставляет доступ к создаваемому пользователями каталогу ссылок на торрент-файлы, которые содержат только списки хеш-сумм.
Убедительная просьба с жалобами обращаться напрямую к пользователю, разместившему торрент файл.

Вверх