Loading...
Error

Французский шпион (Алексей Феоктистов) [2014 г., Боевик, Детектив, DVDRip]

Статистика раздачи
Размер:  1,37 GB   |    Зарегистрирован:  2 года 4 месяца   |    Скачан:  39 раз

Полного источника не было: 1 месяц 11 дней

Сидов:  0  |  0 KB/s  ]   Личеров:  0  |  0 KB/s  ]

* - сиды/пиры с внешних источников

   
 
Автор Сообщение

nemos Пол:Муж

26-Июл-2014 07:23

Французский шпион


Год выпуска: 2014
Жанр: Боевик, Детектив
Страна: Россия
Режиссер: Алексей Феоктистов
В ролях: Оскар Кучера, Евгений Редько, Анна Чурина, Дмитрий Супонин, Охунджон Комилов, Сергей Батрак
Сюжет фильма:
Лейтенант Андрей Канаев служит в социалистической Чехословакии. Советские войска выводятся обратно в СССР. Часть, в которой служил Канаев, расформировывается. Андрей расстроен сокращением и делится своими переживаниями с приятелем — чехом Мареком. Марек организовывает подставу, из-за которой Канаев оказывается вне закона. Через своего агента-вербовщика Софи он переправляет Андрея во Францию, где тот от безысходности поступает в «Иностранный Легион». В иностранном легионе Андрея вербует глава внешней разведки мсье Даниэль. Вскоре Андрей, уже в новом статусе и с новыми документами, возвращается в постперестроечную Россию и начинает строить новую жизнь, не забывая при этом выполнять поручения своих новых хозяев…

  • Мировая премьера: 22 марта 2014
  • Российская премьера: 25 июля 2014

Качество видео: DVDRip

Продолжительность: 01:34:00
Формат: AVI
Видео: XviD, 720x400, 1842 kbps
Аудио: русский, AC3 2.0, 224 kbps

Код:

D:\Фильмы Раздача-1\Francuzkiy.Shpion.2014.O.DVDRip.1400MB.nnm-club.avi
   General
      Complete name : D:\Фильмы Раздача-1\Francuzkiy.Shpion.2014.O.DVDRip.1400MB.nnm-club.avi
      Format : AVI
      Format/Info : Audio Video Interleave
      File size : 1.37 GiB
      Duration : 1h 34mn
      Overall bit rate : 2 076 Kbps
      Writing application : VirtualDubMod 1.5.10.3 | www.virtualdub-fr.org || (build 2550/release)
      Writing library : VirtualDubMod build 2550/release
   Video #0
      ID : 0
      Format : MPEG-4 Visual
      Format profile : Advanced Simple@L5
      Format settings, BVOP : 2
      Format settings, QPel : No
      Format settings, GMC : No warppoints
      Format settings, Matrix : Default (MPEG)
      Codec ID : XVID
      Codec ID/Hint : XviD
      Duration : 1h 34mn
      Bit rate : 1 842 Kbps
      Width : 720 pixels
      Height : 400 pixels
      Display aspect ratio : 16:9
      Frame rate : 25.000 fps
      Color space : YUV
      Chroma subsampling : 4:2:0
      Bit depth : 8 bits
      Scan type : Progressive
      Compression mode : Lossy
      Bits/(Pixel*Frame) : 0.256
      Stream size : 1.21 GiB (89%)
      Writing library : XviD 1.2.1 (UTC 2008-12-04)
   Audio #1
      ID : 1
      Format : AC-3
      Format/Info : Audio Coding 3
      Mode extension : CM (complete main)
      Format settings, Endianness : Big
      Codec ID : 2000
      Duration : 1h 34mn
      Bit rate mode : Constant
      Bit rate : 224 Kbps
      Channel(s) : 2 channels
      Channel positions : Front: L R
      Sampling rate : 48.0 KHz
      Bit depth : 16 bits
      Compression mode : Lossy
      Stream size : 151 MiB (11%)
      Alignment : Split accross interleaves
      Interleave, duration : 40 ms (1.00 video frame)
      Interleave, preload duration : 500 ms
picpicpicpicpicpicpicpicpicpicpicpicpicpicpicpicpicpicpic
Для увеличения картинки щелкните мышкой по превью

Этот торрент недоступен для скачивания без регистрации, однако доступен по публичной magnet-ссылке (источники с публичных трекеров). Перед использованием ссылки прочтите, пожалуйста Пользовательское соглашение, а также как можно дольше оставайтесь на раздаче! Для того, чтобы скачать сам торрент-файл (который видит больше источников), а также для того, чтобы поблагодарить релизера, вам необходимо зарегистрироваться. Если регистрироваться лень - вы можете также попробовать скачать релиз по нашим партнерским ссылкам ниже.

[underverse.su].t42106.torrent
Трекер: Зарегистрирован   [ 26.07.2014 07:23 ]  

Статус: проверено (by nemos at 26.07.2014 07:23)
Поблагодарили: 3 человека
Тип торрента: публичный - доступные источники с открытых трекеров: 
Размер: 1,37 GB (занимает 0,31 DVDR, для записи нужно 1 болванка DVDR/RW)
 
 
Похожие темы
Форум Тема Автор Торрент Отв. Посл. сооб.
T Зарубежное кино [DVDRip, Low-Res HDRip, и т.д.] Французский транзит / La French (Седрик Хименес) [2014 г., боевик, триллер, криминал, HDRip] Dub [Чистый звук] Паукан
27 | 0

1 | 551

32

19.06.2015 18:14

T Зарубежное кино [DVDRip, Low-Res HDRip, и т.д.] Французский транзит / La French (Седрик Хименес) [2014 г., боевик, триллер, криминал, HDRip] Dub [Чистый звук] Паукан
29 | 0

0 | 504

31

13.06.2015 09:54

Обучение иностранным языкам Французский язык с extr@ удовольствием [2007 г., Обучающая видеопрограмма, DVDRip] tradakad
0 | 0

13 | 5858

39

29.09.2012 05:42


Яндекс.Метрика powered by Sphinx


В Н И М А Н И Е
Сайт не распространяет и не хранит электронные версии произведений, а лишь бесплатно и без коммерческой выгоды (не требуя взамен платы,
SMS и т.д.) предоставляет доступ к создаваемому пользователями каталогу ссылок на торрент-файлы, которые содержат только списки хеш-сумм.
Убедительная просьба с жалобами обращаться напрямую к пользователю, разместившему торрент файл.

Вверх