Loading...
Error

Саботаж / Sabotage (Дэвид Эйр / David Ayer) [2014 г., боевик, триллер, драма, криминал, BDRip] Dub + Original HQ Underverse

Статистика раздачи
Размер:  2,18 GB   |    Зарегистрирован:  2 года 4 месяца   |    Скачан:  32 раза

Полного источника не было: 2 месяца 11 дней

Сидов:  0  |  0 KB/s  ]   Личеров:  0  |  0 KB/s  ]

* - сиды/пиры с внешних источников

   
 
Автор Сообщение

HQ Underverse 

26-Июл-2014 00:53

Саботаж / Sabotage


Год выпуска: 2014
Жанр: боевик, триллер, драма, криминал
Страна: США
Режиссер: Дэвид Эйр / David Ayer
В ролях: Арнольд Шварценеггер, Терренс Ховард, Сэм Уортингтон, Макс Мартини, Оливия Уильямс, Мартин Донован, Мирей Инос, Кевин Вэнс, Джо Манганьелло, Джош Холлоуэй
Сюжет фильма:
История начинается с операции элитного подразделения из управления по борьбе с наркотиками, нагрянувшего на явочную квартиру наркокартеля. Команда решает скрыть от начальства, что в результате налёта они обогатились на миллионы долларов, но вскоре хранить тайну становится всё сложнее: кто-то по одному убирает всех участвовавших в операции.

  • Мировая премьера: 19 марта 2014
  • Российская премьера: 17 апреля 2014


Качество видео: BDRip

Продолжительность: 01:49:40
Формат: avi
Видео: XviD, 720x384, 1932 kbps
Аудио #1: русский, дублированный [лицензия], AC3 5.1, 448 kbps
Аудио #2: английский, оригинал, AC3 5.1, 448 kbps

Код:

General
Complete name                    : D:\Video\Movies\Releases\Sabotage.2014.BDRip.XviD.AC3.Rus.D.Eng.O.HQ.Underverse.avi
Format                           : AVI
Format/Info                      : Audio Video Interleave
Format profile                   : OpenDML
File size                        : 2.18 GiB
Duration                         : 1h 49mn
Overall bit rate                 : 2 846 Kbps
Writing application              : VirtualDubMod 1.5.10.3 | www.virtualdub-fr.org || (build 2550/release)
Writing library                  : VirtualDubMod build 2550/release

Video
ID                               : 0
Format                           : MPEG-4 Visual
Format profile                   : Streaming Video@L1
Format settings, BVOP            : Yes
Format settings, QPel            : No
Format settings, GMC             : No warppoints
Format settings, Matrix          : Custom
Codec ID                         : XVID
Codec ID/Hint                    : XviD
Duration                         : 1h 49mn
Bit rate                         : 1 933 Kbps
Width                            : 720 pixels
Height                           : 384 pixels
Display aspect ratio             : 1.875
Frame rate                       : 23.976 fps
Resolution                       : 24 bits
Colorimetry                      : 4:2:0
Scan type                        : Progressive
Bits/(Pixel*Frame)               : 0.292
Stream size                      : 1.48 GiB (68%)
Writing library                  : XviD 64

Audio #1
ID                               : 1
Format                           : AC-3
Format/Info                      : Audio Coding 3
Codec ID                         : 2000
Duration                         : 1h 49mn
Bit rate mode                    : Constant
Bit rate                         : 448 Kbps
Channel(s)                       : 6 channels
Channel positions                : Front: L C R, Surround: L R, LFE
Sampling rate                    : 48.0 KHz
Stream size                      : 351 MiB (16%)
Alignment                        : Split accross interleaves
Interleave, duration             : 42 ms (1.00 video frame)
Interleave, preload duration     : 500 ms
Title                            : Russian Dub

Audio #2
ID                               : 2
Format                           : AC-3
Format/Info                      : Audio Coding 3
Codec ID                         : 2000
Duration                         : 1h 49mn
Bit rate mode                    : Constant
Bit rate                         : 448 Kbps
Channel(s)                       : 6 channels
Channel positions                : Front: L C R, Surround: L R, LFE
Sampling rate                    : 48.0 KHz
Stream size                      : 351 MiB (16%)
Alignment                        : Split accross interleaves
Interleave, duration             : 42 ms (1.00 video frame)
Interleave, preload duration     : 500 ms
Title                            : English

Семпл: http://multi-up.com/

Релиз группы:

picpicpicpic
Для увеличения картинки щелкните мышкой по превью

Этот торрент недоступен для скачивания без регистрации, однако доступен по публичной magnet-ссылке (источники с публичных трекеров). Перед использованием ссылки прочтите, пожалуйста Пользовательское соглашение, а также как можно дольше оставайтесь на раздаче! Для того, чтобы скачать сам торрент-файл (который видит больше источников), а также для того, чтобы поблагодарить релизера, вам необходимо зарегистрироваться. Если регистрироваться лень - вы можете также попробовать скачать релиз по нашим партнерским ссылкам ниже.

[underverse.su].t42102.torrent
Трекер: Зарегистрирован   [ 28.07.2014 07:25 ]  

Статус: проверено (by Паукан at 28.07.2014 07:34)
Поблагодарили: 3 человека
Тип торрента: публичный - доступные источники с открытых трекеров: 
Размер: 2,18 GB (занимает 1/2 DVDR, для записи нужно 1 болванка DVDR/RW)
 
 
Похожие темы
Форум Тема Автор Торрент Отв. Посл. сооб.
T Зарубежное кино [DVDRip, Low-Res HDRip, и т.д.] Саботаж / Sabotage (Дэвид Эйр) [2014 г., боевик, триллер, драма, криминал, HDRip] Dub [Чистый звук] Паукан
9 | 0

0 | 1633

92

11.07.2014 13:53

T Зарубежное кино [DVDRip, Low-Res HDRip, и т.д.] Саботаж / Sabotage (Дэвид Эйр) [2014 г., боевик, триллер, драма, криминал, HDRip] Dub [Чистый звук] Паукан
26 | 0

3 | 1829

100

25.08.2014 15:51

T Зарубежное кино [DVDRip, Low-Res HDRip, и т.д.] Саботаж / Sabotage (Дэвид Эйр / David Ayer) [2014 г., боевик, триллер, драма, криминал, HDRip-AVC] Dub (чистый звук) + Original (Eng) + Sub (Rus) 90ytr90
19 | 0

0 | 1546

66

14.07.2014 06:59

T Зарубежное кино [DVDRip, Low-Res HDRip, и т.д.] Саботаж / Sabotage (Дэвид Эйр / David Ayer) [2014 г., боевик, триллер, драма, криминал, HDRip-AVC] Dub (iTunes) + Original (Eng) + Sub (Rus) 90ytr90
126 | 21

0 | 1179

8

22.07.2014 07:00

T Зарубежное кино [DVDRip, Low-Res HDRip, и т.д.] Саботаж / Sabotage (Дэвид Эйр / David Ayer) [2014 г., боевик, триллер, драма, криминал, HDRip] Dub (iTunes) 90ytr90
14 | 1

0 | 1679

24

22.07.2014 07:27

T Зарубежное кино [DVDRip, Low-Res HDRip, и т.д.] Саботаж / Sabotage (Дэвид Эйр / David Ayer) [2014 г., боевик, триллер, драма, криминал, HDRip] Dub (iTunes) + Original (Eng) 90ytr90
4 | 0

0 | 1313

29

22.07.2014 07:47

Зарубежное кино [DVDRip, Low-Res HDRip, и т.д.] Саботаж / Sabotage (Дэвид Эйр / David Ayer) [2014 г., боевик, триллер, драма, криминал, HDRip] Dub 90ytr90
4 | 0

0 | 609

20

19.08.2014 10:20

Зарубежное кино [DVDRip, Low-Res HDRip, и т.д.] Саботаж / Sabotage (Дэвид Эйр / David Ayer) [2014 г., боевик, триллер, драма, криминал, HDRip-AVC] Dub + Original (Eng) + Sub (Rus) 90ytr90
3 | 0

0 | 571

12

19.08.2014 10:47

Зарубежное кино [DVDRip, Low-Res HDRip, и т.д.] Саботаж / Sabotage (Дэвид Эйр / David Ayer) [2014 г., боевик, триллер, драма, криминал, BDRip-AVC] [US Transfer] Dub + Sub (Rus, Eng) 90ytr90
2 | 0

0 | 570

11

19.08.2014 11:27

Зарубежное кино [DVD / HDDVD / BD / Remux] Саботаж / Sabotage (Дэвид Эйр / David Ayer) [2014, США, боевик, триллер, драма, криминал, BDRemux 1080p] Dub + 2х AVO (Володарский, Горчаков) + 2х VO (Есарев, Матвеев) + Sub Rus, Eng + Original Eng uzi2009
0 | 0

1 | 820

9

20.09.2014 08:22


Яндекс.Метрика powered by Sphinx


В Н И М А Н И Е
Сайт не распространяет и не хранит электронные версии произведений, а лишь бесплатно и без коммерческой выгоды (не требуя взамен платы,
SMS и т.д.) предоставляет доступ к создаваемому пользователями каталогу ссылок на торрент-файлы, которые содержат только списки хеш-сумм.
Убедительная просьба с жалобами обращаться напрямую к пользователю, разместившему торрент файл.

Вверх