Loading...
Error

Курортная полиция (1-20 серии из 20) (Сергей Виноградов) [2014 г., детектив, комедия, SatRip]

Статистика раздачи
Размер:  11,93 GB   |    Зарегистрирован:  2 года 4 месяца   |    Скачан:  15 раз

Полного источника не было: 3 месяца 14 дней

Сидов:  0  |  0 KB/s  ]   Личеров:  0  |  0 KB/s  ]

* - сиды/пиры с внешних источников

   
 
Автор Сообщение

nemos Пол:Муж

22-Июл-2014 19:55

Курортная полиция

Год выпуска: 2014
Жанр: детектив, комедия
Страна: Россия , Украина
Режиссер: Сергей Виноградов
В ролях: Ирина Линдт, Юрий Кузнецов, Денис Васильев, Андрей Стоянов, Валентин Смирнитский, Эммануил Виторган, Алексей Королёв, Сергей Фролов, Николай Завгородний, Диана Малая, Станислав Ангелов, Наталья Ковалёва, Ольга Сулименко, Роман Лукьянов, Сергей Деньга, Алина Егорова, Алёна Андрюшова, Юлия Амелькина, Павел Шмарёв
Качество видео: SatRip

Продолжительность: 00:42:24 серия
Формат: AVI
Видео: XviD, 720x448, 1 801 kbps
Аудио: русский, не требуется, MP3 2.0, 128 kbps

Курортная полиция — специальное полицейское подразделение, призванное «улучшить морально-этический климат» в курортной зоне, а проще говоря — утихомирить мелких жуликов всех мастей, которые каждый сезон слетаются на морское побережье с первыми лучами майского солнца. Условия отбора кандидатов в курортную полицию были просты: сотрудники должны иметь достаточную квалификацию и не быть знакомы друг с другом, чтобы исключить вероятность ненужных сговоров. Пробное подразделение сформировали из трех поколений полицейских из разных регионов России.

Код:

D:\Фильмы Раздача-1\Kurortnaja.policija.SATRip\Kurortnaja.policija.01.2014.SATRip.avi
   General
      Complete name : D:\Фильмы Раздача-1\Kurortnaja.policija.SATRip\Kurortnaja.policija.01.2014.SATRip.avi
      Format : AVI
      Format/Info : Audio Video Interleave
      File size : 588 MiB
      Duration : 42mn 24s
      Overall bit rate : 1 939 Kbps
      Writing library : VirtualDub build 32817/release
   Video #0
      ID : 0
      Format : MPEG-4 Visual
      Format profile : Advanced Simple@L5
      Format settings, BVOP : 2
      Format settings, QPel : No
      Format settings, GMC : No warppoints
      Format settings, Matrix : Default (MPEG)
      Codec ID : XVID
      Codec ID/Hint : XviD
      Duration : 42mn 24s
      Bit rate : 1 801 Kbps
      Width : 720 pixels
      Height : 448 pixels
      Display aspect ratio : 1.607
      Frame rate : 25.000 fps
      Color space : YUV
      Chroma subsampling : 4:2:0
      Bit depth : 8 bits
      Scan type : Progressive
      Compression mode : Lossy
      Bits/(Pixel*Frame) : 0.223
      Stream size : 546 MiB (93%)
      Writing library : XviD 1.2.1 (UTC 2008-12-04)
   Audio #1
      ID : 1
      Format : MPEG Audio
      Format version : Version 1
      Format profile : Layer 3
      Mode : Joint stereo
      Codec ID : 55
      Codec ID/Hint : MP3
      Duration : 42mn 24s
      Bit rate mode : Constant
      Bit rate : 128 Kbps
      Channel(s) : 2 channels
      Sampling rate : 48.0 KHz
      Compression mode : Lossy
      Stream size : 38.8 MiB (7%)
      Alignment : Split accross interleaves
      Interleave, duration : 40 ms (1.00 video frame)
      Interleave, preload duration : 500 ms
Семпл: http://multi-up.com/988170

picpicpicpicpicpicpicpicpicpic
Для увеличения картинки щелкните мышкой по превью

Этот торрент недоступен для скачивания без регистрации, однако доступен по публичной magnet-ссылке (источники с публичных трекеров). Перед использованием ссылки прочтите, пожалуйста Пользовательское соглашение, а также как можно дольше оставайтесь на раздаче! Для того, чтобы скачать сам торрент-файл (который видит больше источников), а также для того, чтобы поблагодарить релизера, вам необходимо зарегистрироваться. Если регистрироваться лень - вы можете также попробовать скачать релиз по нашим партнерским ссылкам ниже.

[underverse.su].t42101.torrent
Трекер: Зарегистрирован   [ 25.07.2014 18:32 ]  

Статус: проверено (by nemos at 25.07.2014 18:32)
Поблагодарили: 3 человека
Тип торрента: публичный - доступные источники с открытых трекеров: 
Размер: 11,93 GB (занимает 2,73 DVDR, для записи нужно 3 болванки DVDR/RW)
 
 


Последний раз редактировалось: nemos (06.11.2014 07:53), всего редактировалось 4 раз(а)

nemos Пол:Муж

23-Июл-2014 19:08

Внимание! Данная раздача обновлена 20 серий.

Яндекс.Метрика powered by Sphinx


В Н И М А Н И Е
Сайт не распространяет и не хранит электронные версии произведений, а лишь бесплатно и без коммерческой выгоды (не требуя взамен платы,
SMS и т.д.) предоставляет доступ к создаваемому пользователями каталогу ссылок на торрент-файлы, которые содержат только списки хеш-сумм.
Убедительная просьба с жалобами обращаться напрямую к пользователю, разместившему торрент файл.

Вверх