Loading...
Error

Небеса реальны / Heaven Is for Real (Рэндалл Уоллас) [2014 г., драма, экранизация, HDRip-AVC] VO

Статистика раздачи
Размер:  1,6 GB   |    Зарегистрирован:  2 года 4 месяца   |    Скачан:  25 раз

Полного источника не было: 2 месяца 25 дней

Сидов:  0  |  0 KB/s  ]   Личеров:  0  |  0 KB/s  ]

* - сиды/пиры с внешних источников

   
 
Автор Сообщение

Паукан Пол:Муж

18-Июл-2014 12:41

Небеса реальны / Heaven Is for Real


Название: Небеса реальны
Оригинальное название: Heaven Is for Real
Год выпуска: 2014
Жанр: Драма, экранизация
Выпущено: США, Roth Films, Screen Gems, TriStar Pictures
Режиссер: Рэндалл Уоллас
В ролях: Грег Киннер, Келли Райлли, Томас Хейден Чёрч, Коннор Корам, Лэйн Стайлз, Марго Мартиндейл, Джейкоб Варгас, Таня Ромеро, Дансо Гордон, Роб Моран

Описание: Главный герой меняет свое мировоззрение после того, как его 4-летний сын выходит из комы и утверждает, что был в раю. В доказательство он приводит факты из жизни их семьи, которые просто не мог знать.



Качество: HDRip-AVC
Видео: MPEG-4 AVC, 1794 Кбит/с, 1024х426
Аудио: Русский (AC3, 2 ch, 128 Кбит/с), английский (AC3, 6 ch, 384 Кбит/c)
Продолжительность: 01:39:30
Перевод: Любительский одноголосый (Andi)
Субтитры: Английские
General
Unique ID : 197830118523860612822140150342147794117 (0x94D4B1E60F3516BA874AA24E647664C5)
Complete name : C:\Heaven.is.for.Real.2014.L.HDRip.AVC.ExKinoRay.mkv
Format : Matroska
Format version : Version 2
File size : 1.60 GiB
Duration : 1h 39mn
Overall bit rate : 2 309 Kbps
Movie name : Heaven is for Real 2014 from ExKinoRay
Encoded date : UTC 2014-07-17 21:53:41
Writing application : mkvmerge v4.9.1 ('Ich will') built on Jul 11 2011 23:53:15
Writing library : libebml v1.2.1 + libmatroska v1.1.1

Video
ID : 1
Format : AVC
Format/Info : Advanced Video Codec
Format profile : High@L4.1
Format settings, CABAC : Yes
Format settings, ReFrames : 9 frames
Codec ID : V_MPEG4/ISO/AVC
Duration : 1h 39mn
Bit rate : 1 794 Kbps
Width : 1 024 pixels
Height : 426 pixels
Display aspect ratio : 2.40:1
Frame rate mode : Constant
Frame rate : 23.976 fps
Color space : YUV
Chroma subsampling : 4:2:0
Bit depth : 8 bits
Scan type : Progressive
Bits/(Pixel*Frame) : 0.172
Stream size : 1.22 GiB (76%)
Title : Enigma-Vladislav71
Writing library : x264 core 116 r2044 392e762
Encoding settings : cabac=1 / ref=9 / deblock=1:-2:-2 / analyse=0x3:0x113 / me=umh / subme=10 / psy=1 / psy_rd=1.00:0.20 / mixed_ref=1 / me_range=32 / chroma_me=1 / trellis=2 / 8x8dct=1 / cqm=0 / deadzone=21,11 / fast_pskip=0 / chroma_qp_offset=-3 / threads=12 / sliced_threads=0 / nr=0 / decimate=0 / interlaced=0 / bluray_compat=0 / constrained_intra=0 / bframes=9 / b_pyramid=2 / b_adapt=2 / b_bias=0 / direct=3 / weightb=1 / open_gop=0 / weightp=2 / keyint=240 / keyint_min=23 / scenecut=40 / intra_refresh=0 / rc=2pass / mbtree=0 / bitrate=1794 / ratetol=1.0 / qcomp=0.60 / qpmin=0 / qpmax=69 / qpstep=4 / cplxblur=20.0 / qblur=0.5 / ip_ratio=1.40 / pb_ratio=1.30 / aq=1:1.00
Default : Yes
Forced : No

Audio #1
ID : 2
Format : AC-3
Format/Info : Audio Coding 3
Mode extension : CM (complete main)
Format settings, Endianness : Big
Codec ID : A_AC3
Duration : 1h 39mn
Bit rate mode : Constant
Bit rate : 128 Kbps
Channel(s) : 2 channels
Channel positions : Front: L R
Sampling rate : 48.0 KHz
Bit depth : 16 bits
Compression mode : Lossy
Stream size : 91.1 MiB (6%)
Title : Andi
Language : Russian
Default : Yes
Forced : No

Audio #2
ID : 3
Format : AC-3
Format/Info : Audio Coding 3
Mode extension : CM (complete main)
Format settings, Endianness : Big
Codec ID : A_AC3
Duration : 1h 39mn
Bit rate mode : Constant
Bit rate : 384 Kbps
Channel(s) : 6 channels
Channel positions : Front: L C R, Side: L R, LFE
Sampling rate : 48.0 KHz
Bit depth : 16 bits
Compression mode : Lossy
Stream size : 273 MiB (17%)
Language : English
Default : No
Forced : No

Text #1
ID : 4
Format : UTF-8
Codec ID : S_TEXT/UTF8
Codec ID/Info : UTF-8 Plain Text
Title : Full
Language : English
Default : No
Forced : No

Text #2
ID : 5
Format : UTF-8
Codec ID : S_TEXT/UTF8
Codec ID/Info : UTF-8 Plain Text
Title : SDH
Language : English
Default : No
Forced : No

Menu
00:00:00.000 : en:00:00:00.000
00:04:57.255 : en:00:04:57.255
00:11:09.669 : en:00:11:09.669
00:17:20.081 : en:00:17:20.081
00:22:07.618 : en:00:22:07.618
00:26:00.100 : en:00:26:00.100
00:33:09.487 : en:00:33:09.487
00:40:09.449 : en:00:40:09.449
00:44:37.842 : en:00:44:37.842
00:49:48.736 : en:00:49:48.736
00:56:35.309 : en:00:56:35.309
01:03:18.086 : en:01:03:18.086
01:06:33.448 : en:01:06:33.448
01:13:07.967 : en:01:13:07.967
01:16:29.585 : en:01:16:29.585
01:23:51.485 : en:01:23:51.485
pic pic pic
Для увеличения картинки щелкните мышкой по превью

Этот торрент недоступен для скачивания без регистрации, однако доступен по публичной magnet-ссылке (источники с публичных трекеров). Перед использованием ссылки прочтите, пожалуйста Пользовательское соглашение, а также как можно дольше оставайтесь на раздаче! Для того, чтобы скачать сам торрент-файл (который видит больше источников), а также для того, чтобы поблагодарить релизера, вам необходимо зарегистрироваться. Если регистрироваться лень - вы можете также попробовать скачать релиз по нашим партнерским ссылкам ниже.

[underverse.su].t41872.torrent
Трекер: Зарегистрирован   [ 18.07.2014 12:41 ]  

Статус: проверено (by Паукан at 18.07.2014 12:41)
Поблагодарили: пока никто не поблагодарил...
Тип торрента: публичный - доступные источники с открытых трекеров: 
Размер: 1,6 GB (занимает 0,37 DVDR, для записи нужно 1 болванка DVDR/RW)
 
 
Похожие темы
Форум Тема Автор Торрент Отв. Посл. сооб.
Зарубежное кино [DVDRip, Low-Res HDRip, и т.д.] Небеса реальны / Heaven Is for Real (Рэндалл Уоллес) [2014 г., Драма, BDRip-AVC] MVO (RUS) + VO (RUS, Andi) + Original (ENG) + Subs (ENG) Ведьмочка
0 | 0

0 | 586

14

13.10.2014 09:09

Зарубежное кино [DVD / HDDVD / BD / Remux] Небеса реальны / Heaven Is for Real (Рэндалл Уоллес) [2014 г., Драма, Blu-Ray Remux 1080p] MVO (RUS) + Original (ENG) + Subs (RUS, ENG) Ведьмочка
0 | 0

0 | 898

5

05.10.2014 07:23

Зарубежное кино [HDDVDRip / BDRip / WEB-DL / HDTV 1080/720р] Небеса реальны / Heaven Is for Real (Рэндалл Уоллес) [2014 г., Драма, BDRip 720p] MVO (RUS) Ведьмочка
0 | 0

0 | 826

11

08.10.2014 11:08

Зарубежное кино [HDDVDRip / BDRip / WEB-DL / HDTV 1080/720р] Небеса реальны / Heaven Is for Real (Рэндалл Уоллес) [2014 г., Драма, BDRip 1080p] MVO (RUS) Ведьмочка
0 | 0

0 | 559

3

13.10.2014 09:01


Яндекс.Метрика powered by Sphinx


В Н И М А Н И Е
Сайт не распространяет и не хранит электронные версии произведений, а лишь бесплатно и без коммерческой выгоды (не требуя взамен платы,
SMS и т.д.) предоставляет доступ к создаваемому пользователями каталогу ссылок на торрент-файлы, которые содержат только списки хеш-сумм.
Убедительная просьба с жалобами обращаться напрямую к пользователю, разместившему торрент файл.

Вверх