Loading...
Error

The Recruit / Рекрут (Роджер Дональдсон) [2003 г., Детектив, Драма, BDRip] Dub

Статистика раздачи
Размер:  1,46 GB   |    Зарегистрирован:  1 год 4 месяца   |    Скачан:  5 раз

Полного источника не было: 16 часов

Сидов:  0  |  0 KB/s  ]   Личеров:  0  |  0 KB/s  ]

* - сиды/пиры с внешних источников

   
 
Автор Сообщение

Fert Пол:Муж

18-Июл-2014 10:12

The Recruit / Рекрут


Год выпуска: 2003
Жанр: Детектив, Драма
Страна: США
Режиссер: Роджер Дональдсон
В ролях: Аль Пачино, Колин Фаррелл, Бриджет Мойнэхэн, Гэбриел Махт, Кеннет Митчелл, Майк Рилба, Рон Лиа, Карл Прюнер, Джини Колледжа, Дженни Ливайн
Сюжет фильма:
Вовсе не мальчишечья мечта поиграться в шпионов заставляет главного героя – Джэймса Клэйтона – завербоваться в ЦРУ. Движет им желание узнать всю правду о смерти отца, которая случилась в далёких девяностых, когда отец был секретным агентом. Молодой рекрут проходит различные изощрённые испытания.
С каждым днём обстановка всё больше накаляется. Уолтер Бёрк – матёрый разведчик, а также наставник нашего героя, намекает, что даже за обыденными событиями стоит скрытая проверка, а всё происходящее может оказаться вообще не тем, чем кажется. Вскоре Клэйтона ставят в известность, что в ЦРУ давно появился неуловимый «крот» и поймать его надо будет именно нашему герою.
Как вычислить предателя? Очередной ли это коварный тест или же речь действительно идёт о национальной безопасности? Где заканчивается игра и начинается реальная жизнь? Марионеткой или кукловодом ты являешься в этом спектакле?
Именно неугасающее напряжение и сюжет держат зрителя у экрана на протяжении всего фильма и выделяют эту картину среди шпионских триллеров. Ну и не стоит забывать о том, что главные роли здесь исполняют Аль Пачино и Колин Фаррелл, что тоже даёт характеристику фильму.



Продолжительность: 01:55:00
Качество видео: BDRip
Формат: AVI
Видео: 720x304 (2.37:1), 23.976 fps, XviD build 50 ~1614 kbps
Аудио: 48 kHz, AC3 Dolby Digital, 2/0 (L,R) ch, ~192.00 kbps [русский, дублированный]

Код:

Формат                                   : AVI

Размер файла                             : 1,46 Гбайт
Продолжительность                        : 1 ч. 55 м.
Общий поток                              : 1816 Кбит/сек
Программа кодирования                    : VirtualDubMod 1.5.10.2 (build

2540/release)
Авторское право                          : *другой трекер*

Видео
Идентификатор                            : 0
Формат                                   : MPEG-4 Visual
Формат/Информация                        : Audio Video Interleave
Профиль формата                          : Advanced Simple@L5
Параметр BVOP формата                    : 2
Параметр QPel формата                    : Нет
Параметр GMC формата                     : Без точки перехода
Идентификатор кодека                     : XVID
Битрейт                                  : 1615 Кбит/сек
Ширина                                   : 720 пикселей
Высота                                   : 304 пикселя
Соотношение сторон                       : 2,35:1
Частота кадров                           : 23,976 кадра/сек
Цветовое пространство                    : YUV
Субдискретизация насыщенности            : 4:2:0
Битовая глубина                          : 8 бит
Тип развёртки                            : Прогрессивная
Бит/(Пиксели*Кадры)                      : 0.308
Размер потока                            : 1,30 Гбайт (89%)
Библиотека кодирования                   : XviD 1.2.1 (UTC 2008-12-04)

Аудио
Идентификатор                            : 1
Формат                                   : AC-3
Формат/Информация                        : Audio Coding 3
Расширение режима                        : CM (complete main)
Параметр Endianness формата              : Big
Идентификатор кодека                     : 2000
Продолжительность                        : 1 ч. 55 м.
Вид битрейта                             : Постоянный
Битрейт                                  : 192 Кбит/сек
Каналы                                   : 2 канала
Расположение каналов                     : Front: L R
Частота                                  : 48,0 КГц
Метод сжатия                             : С потерями
Размер потока                            : 158 Мбайт (11%)
Выравнивание                             : Разделение по промежуткам
Продолжительность промежутка             : 42  мс. (1,00 видеокадр)
Время предзагрузки промежутка            : 500  мс.

pic pic pic
pic pic pic
Для увеличения картинки щелкните мышкой по превью

Этот торрент недоступен для скачивания без регистрации, однако доступен по публичной magnet-ссылке (источники с публичных трекеров). Перед использованием ссылки прочтите, пожалуйста Пользовательское соглашение, а также как можно дольше оставайтесь на раздаче! Для того, чтобы скачать сам торрент-файл (который видит больше источников), а также для того, чтобы поблагодарить релизера, вам необходимо зарегистрироваться. Если регистрироваться лень - вы можете также попробовать скачать релиз по нашим партнерским ссылкам ниже.

[underverse.su].t56928.torrent
Трекер: Зарегистрирован   [ 10.08.2015 23:51 ]  

Статус: проверено (by makkol at 13.08.2015 21:00)
Поблагодарили: 4 человека
Тип торрента: публичный - доступные источники с открытых трекеров: 
Размер: 1,46 GB (занимает 1/3 DVDR, для записи нужно 1 болванка DVDR/RW)
 
 


Последний раз редактировалось: Fert (13.08.2015 21:54), всего редактировалось 6 раз(а)

makkol Пол:Муж

11-Авг-2015 07:39

- Обновили файл, нужно и скрины обновить (по разрешению видно, что они с другой раздачи)
- На рутрекере пишут, что здесь не многоголоска а дубляж

Яндекс.Метрика powered by Sphinx


В Н И М А Н И Е
Сайт не распространяет и не хранит электронные версии произведений, а лишь бесплатно и без коммерческой выгоды (не требуя взамен платы,
SMS и т.д.) предоставляет доступ к создаваемому пользователями каталогу ссылок на торрент-файлы, которые содержат только списки хеш-сумм.
Убедительная просьба с жалобами обращаться напрямую к пользователю, разместившему торрент файл.

Вверх