Loading...
Error

Need for Speed: Жажда скорости / Need for Speed (Скотт Во) [2014 г., боевик, триллер, драма, криминал, BDRip] Dub + Original + Sub (Rus,Eng) HQ Underverse

Статистика раздачи
Размер:  2,59 GB   |    Зарегистрирован:  2 года 4 месяца   |    Скачан:  85 раз

Полного источника не было: 1 год

Сидов:  0  |  0 KB/s  ]   Личеров:  0  |  0 KB/s  ]

* - сиды/пиры с внешних источников

   
 
Автор Сообщение

HQ Underverse 

17-Июл-2014 14:40

Need for Speed: Жажда скорости / Need for Speed


Год выпуска: 2014
Жанр: боевик, триллер, драма, криминал
Страна: США
Режиссер: Скотт Во
В ролях: Дакота Джонсон, Скотт Мескади, Ник Чинланд, Майкл Китон, Рамон Родригес, Доминик Купер, Имоджен Путс, Рами Малек, Сэр Маджор, Аарон Пол
Сюжет фильма:
История Тоби Маршалла, гениального автомеханика, чьей единственной отдушиной является участие в подпольных гонках. Чтобы сохранить семейную мастерскую, Тоби вынужден взять в партнеры богатого и заносчивого бывшего гонщика NASCAR Дино Брюстера. Когда дела Тоби наконец-то начинают идти в гору, Дино подставляет партнера, и Тоби обвиняют в преступлении, которого он не совершал. Спустя два года Тоби выходит из тюрьмы с мыслью о мести. Чтобы достичь своей цели, ему придется совершить невозможное и доказать, что даже в мире броских суперкаров самый невзрачный гонщик может финишировать первым.

  • Мировая премьера: 12 марта 2014
  • Российская премьера: 13 марта 2014, «WDSSPR» 3D

/
Качество видео: BDRip

Продолжительность: 02:10:42
Формат: avi
Видео: XviD, 720x304, 1926 kbps
Аудио #1: русский, дублированный [лицензия], AC3 5.1, 448 kbps
Аудио #2: английский, оригинал, AC3 5.1, 448 kbps (отдельным файлом)
Субтитры #1: внешние, SRT, русский
Субтитры #2: внешние, SRT, английский
Субтитры #3: внешние, SRT, русский, форсированные

Код:

General
Complete name                    : Y:\Жажда скорости\Need.For.Speed.2014.BDRip.XviD.AC3.Rus.D.HQ.Underverse.avi
Format                           : AVI
Format/Info                      : Audio Video Interleave
Format profile                   : OpenDML
File size                        : 2.18 GiB
Duration                         : 2h 10mn
Overall bit rate                 : 2 386 Kbps
Writing application              : VirtualDubMod 1.5.10.3 | www.virtualdub-fr.org || (build 2550/release)
Writing library                  : VirtualDubMod build 2550/release

Video
ID                               : 0
Format                           : MPEG-4 Visual
Format profile                   : Streaming Video@L1
Format settings, BVOP            : Yes
Format settings, QPel            : No
Format settings, GMC             : No warppoints
Format settings, Matrix          : Custom
Codec ID                         : XVID
Codec ID/Hint                    : XviD
Duration                         : 2h 10mn
Bit rate                         : 1 926 Kbps
Width                            : 720 pixels
Height                           : 304 pixels
Display aspect ratio             : 2.35
Frame rate                       : 23.976 fps
Resolution                       : 24 bits
Colorimetry                      : 4:2:0
Scan type                        : Progressive
Bits/(Pixel*Frame)               : 0.367
Stream size                      : 1.76 GiB (81%)
Writing library                  : XviD 64

Audio
ID                               : 1
Format                           : AC-3
Format/Info                      : Audio Coding 3
Codec ID                         : 2000
Duration                         : 2h 10mn
Bit rate mode                    : Constant
Bit rate                         : 448 Kbps
Channel(s)                       : 6 channels
Channel positions                : Front: L C R, Surround: L R, LFE
Sampling rate                    : 48.0 KHz
Stream size                      : 419 MiB (19%)
Alignment                        : Split accross interleaves
Interleave, duration             : 42 ms (1.00 video frame)
Interleave, preload duration     : 500 ms

General
Complete name                    : Y:\Жажда скорости\Need.For.Speed.2014.BDRip.XviD.AC3.Rus.D.HQ.Underverse.ENG.ac3
Format                           : AC-3
Format/Info                      : Audio Coding 3
File size                        : 419 MiB
Duration                         : 2h 10mn
Overall bit rate                 : 448 Kbps

Audio
Format                           : AC-3
Format/Info                      : Audio Coding 3
Duration                         : 2h 10mn
Bit rate mode                    : Constant
Bit rate                         : 448 Kbps
Channel(s)                       : 6 channels
Channel positions                : Front: L C R, Surround: L R, LFE
Sampling rate                    : 48.0 KHz
Stream size                      : 419 MiB (100%)

Релиз группы:

picpicpic
Для увеличения картинки щелкните мышкой по превью

Этот торрент недоступен для скачивания без регистрации, однако доступен по публичной magnet-ссылке (источники с публичных трекеров). Перед использованием ссылки прочтите, пожалуйста Пользовательское соглашение, а также как можно дольше оставайтесь на раздаче! Для того, чтобы скачать сам торрент-файл (который видит больше источников), а также для того, чтобы поблагодарить релизера, вам необходимо зарегистрироваться. Если регистрироваться лень - вы можете также попробовать скачать релиз по нашим партнерским ссылкам ниже.

[underverse.su].t41813.torrent
Трекер: Зарегистрирован   [ 17.07.2014 14:40 ]  

Статус: проверено (by HQ Underverse at 17.07.2014 14:40)
Поблагодарили: 6 человек
Тип торрента: публичный - доступные источники с открытых трекеров: 
Размер: 2,59 GB (занимает 0,59 DVDR, для записи нужно 1 болванка DVDR/RW)
 
 
Похожие темы
Форум Тема Автор Торрент Отв. Посл. сооб.
Зарубежное кино [DVDRip, Low-Res HDRip, и т.д.] Need for Speed: Жажда скорости / Need for Speed (Скотт Во / Scott Waugh) [2014 г., боевик, триллер, драма, криминал, BDRip] Dub 90ytr90
65 | 1

0 | 1577

111

17.07.2014 05:23

Зарубежное кино [DVDRip, Low-Res HDRip, и т.д.] Need for Speed: Жажда скорости / Need for Speed (Скотт Во / Scott Waugh) [2014 г., боевик, триллер, драма, криминал, BDRip] Dub + Original (Eng) + Sub (Rus, Eng) 90ytr90
1 | 0

0 | 1353

9

17.07.2014 05:49

Зарубежное кино [DVDRip, Low-Res HDRip, и т.д.] Need for Speed: Жажда скорости / Need for Speed (Скотт Во / Scott Waugh) [2014 г., боевик, триллер, драма, криминал, HDRip-AVC] Dub + Original (Eng) + Sub (Rus, Eng) 90ytr90
2 | 0

0 | 1298

19

17.07.2014 06:05

Зарубежное кино [HDDVDRip / BDRip / WEB-DL / HDTV 1080/720р] Need for Speed: Жажда скорости / Need for Speed (Скотт Во) [2014 г., Боевик, Триллер, Драма, Криминал, BDRip 720p] Dub (Rus) + 3 x Eng + Subs (Rus, Eng) Ведьмочка
0 | 0

0 | 1068

26

17.07.2014 06:17

Зарубежное кино [HDDVDRip / BDRip / WEB-DL / HDTV 1080/720р] Need for Speed: Жажда скорости / Need for Speed (Скотт Во / Scott Waugh) [2014 г., боевик, триллер, драма, криминал, BDRip 720p] Dub + Sub (Rus, Eng) 90ytr90
5 | 0

0 | 1083

37

17.07.2014 08:57

Зарубежное кино [HDDVDRip / BDRip / WEB-DL / HDTV 1080/720р] Need for Speed: Жажда скорости / Need for Speed (Скотт Во / Scott Waugh) [2014 г., боевик, триллер, драма, криминал, BDRip 720p] Dub + Original (Eng) + Sub (Rus, Eng) 90ytr90
19 | 0

0 | 869

28

22.07.2014 06:04

Зарубежное кино [HDDVDRip / BDRip / WEB-DL / HDTV 1080/720р] Need for Speed: Жажда скорости / Need for Speed (Скотт Во / Scott Waugh) [2014 г., боевик, триллер, драма, криминал, BDRip 1080p] Dub + Original (Eng) + Sub (Rus, Eng) 90ytr90
0 | 0

0 | 986

31

22.07.2014 06:16

Гоночные симуляторы Need for Speed: ProStreet [в России 29 ноября 2007 года г., Гоночная аркада] RUS venom57rus
2 | 0

3 | 2088

38

28.11.2012 17:51

Гоночные симуляторы Need for Speed Hot Pursuit Limited Edition (2010 г., Racing (Cars)) [R] [RUS] THE_MECHANIC
0 | 0

2 | 2203

119

03.03.2011 23:40

Гоночные симуляторы Need for Speed: Shift 2 Unleashed (2011) [Racing (Cars) / Simulator / 3D] [L] (MULTi7) WeaSel
0 | 0

5 | 1649

16

28.01.2016 10:08

ksa2 Пол:Муж

18-Июл-2014 12:25

Может краник всё таки открутишь поболее ? :evil:
а за релиз спс :Bravo:

Яндекс.Метрика powered by Sphinx


В Н И М А Н И Е
Сайт не распространяет и не хранит электронные версии произведений, а лишь бесплатно и без коммерческой выгоды (не требуя взамен платы,
SMS и т.д.) предоставляет доступ к создаваемому пользователями каталогу ссылок на торрент-файлы, которые содержат только списки хеш-сумм.
Убедительная просьба с жалобами обращаться напрямую к пользователю, разместившему торрент файл.

Вверх