Loading...
Error

Божественное оружие / Shin ge jeon (Ю-джин Ким) [2008 г., боевик, драма, BDRip-AVC] MVO + VO + Original + Sub (Eng)

Статистика раздачи
Размер:  3,88 GB   |    Зарегистрирован:  2 года 4 месяца   |    Скачан:  12 раз

Полного источника не было: 1 месяц 6 дней

Сидов:  0  |  0 KB/s  ]   Личеров:  0  |  0 KB/s  ]

* - сиды/пиры с внешних источников

   
 
Автор Сообщение

Паукан Пол:Муж

15-Июл-2014 13:28

Божественное оружие / Shin ge jeon


Название: Божественное оружие
Оригинальное название: Shin ge jeon (The Divine Weapon)
Год выхода: 2008
Жанр: Боевик, драма
Режиссер: Ю-джин Ким
В ролях: Чжэ Ён Чон, Ын Чон Хан, Хо Чжун Хо, Сон Ги Ан, Чжон Гын Син, Сон Мо Чон, Мён Су Ким (II), Чон Чхоль Пак, До Кён Ли, Хён Гён Рю, Гё Джин Ин, Кён Ён Ли

Сюжет фильма: Однажды вечером глава торговой общины Сол-джун сын военного советника, изготовлявшего порох для королевского двора и казнённого по ложному обвинению в государственной измене, после разговора с командующим армии Чан-кангом согласился принять и приютить у себя незваных гостей. Он даже не догадывался о том, какие сложные и опасные приключения повлечёт за собой этот неожиданный визит. Не знали об этом и его друзья купцы, которые, как обычно, с радостью согласились помочь ему в деле, которое, как им казалось, сулило всем хорошую прибыль. Единственным человеком, который понимал всю серьёзность происходящего, была девушка по имени Хонг-ли, дочь недавно погибшего военного советника Га-сонга, занимавшегося разработкой секретного оружия, ставшего прототипом первой в мире реактивной артиллерии. Но в интересах нации она до последнего момента должна была скрывать правду о "Сингежоне", который в кулуарах дворца называли Божественным оружием…



Страна: Южная Корея
Студия: Cinema Service, CJ Entertainment, KnJ Entertainment
Продолжительность: 02:14:09
Перевод: Профессиональный многоголосый, любительский одноголосый

Кодек: MPEG-4 AVC
Качество: BDRip-AVC
Видео: 2800 Кбит/с, 1024x436, 23.976 кадр/с

Аудио #1: Русский (AC3, 6 ch, 448 Кбит/с) / Профессиональный многоголосый (НТВ+)
Аудио #2: Русский (AC3, 6 ch, 448 Кбит/с) / Любительский одноголосый
Аудио #3: Корейский (AC3, 6 ch, 448 Кбит/с)
Субтитры: Русские (@PD), английские

Семпл
Общее
Уникальный идентификатор : 212272619391524492685149155836577073429 (0x9FB2382AFD44EE3CAB7FCC24D56E4915)
Полное имя : D:Мои РипыBozhestvennoe.oruzhie.x264.2008.BDRip.AVC.MediaClub.mkv
Формат : Matroska
Версия формата : Version 4 / Version 2
Размер файла : 3,88 Гбайт
Продолжительность : 2 ч. 14 м.
Общий поток : 4145 Кбит/сек
Название фильма : = MediaClub = rip by krakatuq
Дата кодирования : UTC 2014-07-15 10:00:23
Программа кодирования : mkvmerge v6.6.0 ('The Edge Of The In Between') built on Dec 1 2013 17:55:00
Библиотека кодирования : libebml v1.3.0 + libmatroska v1.4.1

Видео
Идентификатор : 1
Формат : AVC
Формат/Информация : Advanced Video Codec
Профиль формата : High@L4.1
Параметр CABAC формата : Да
Параметр ReFrames формата : 9 кадров
Идентификатор кодека : V_MPEG4/ISO/AVC
Продолжительность : 2 ч. 14 м.
Битрейт : 2800 Кбит/сек
Ширина : 1024 пикселя
Высота : 436 пикселей
Соотношение сторон : 2,35:1
Режим частоты кадров : Постоянный
Частота кадров : 23,976 кадра/сек
Цветовое пространство : YUV
Субдискретизация насыщенности : 4:2:0
Битовая глубина : 8 бит
Тип развёртки : Прогрессивная
Бит/(Пиксели*Кадры) : 0.262
Размер потока : 2,55 Гбайт (66%)
Заголовок : Bozhestvennoe.oruzhie.x264.2008.BDRip.AVC.MediaClub
Библиотека кодирования : x264 core 142 r2409+42 04be48a tMod [8-bit@4:2:0 X86]
Настройки программы : cabac=1 / ref=9 / deblock=1:-2:-2 / analyse=0x3:0x133 / me=umh / subme=11 / psy=1 / fade_compensate=0.00 / psy_rd=1.00:0.15 / mixed_ref=1 / me_range=32 / chroma_me=1 / trellis=2 / 8x8dct=1 / cqm=0 / deadzone=21,11 / fast_pskip=0 / chroma_qp_offset=-3 / threads=3 / lookahead_threads=1 / sliced_threads=0 / nr=0 / decimate=0 / interlaced=0 / bluray_compat=0 / constrained_intra=0 / fgo=0 / bframes=8 / b_pyramid=2 / b_adapt=2 / b_bias=0 / direct=3 / weightb=1 / open_gop=0 / weightp=2 / keyint=240 / keyint_min=23 / scenecut=40 / intra_refresh=0 / rc=2pass / mbtree=0 / bitrate=2800 / ratetol=1.0 / qcomp=0.60 / qpmin=0:0:0 / qpmax=69:69:69 / qpstep=4 / cplxblur=20.0 / qblur=0.5 / ip_ratio=1.40 / pb_ratio=1.30 / aq=1:1.00 / aq-sensitivity=10.00 / aq-factor=1.00:1.00:1.00 / aq2=0 / aq3=0
Язык : Korean
Default : Да
Forced : Нет

Аудио #1
Идентификатор : 2
Формат : AC-3
Формат/Информация : Audio Coding 3
Расширение режима : CM (complete main)
Параметр Endianness формата : Big
Идентификатор кодека : A_AC3
Продолжительность : 2 ч. 14 м.
Вид битрейта : Постоянный
Битрейт : 448 Кбит/сек
Каналы : 6 каналов
Расположение каналов : Front: L C R, Side: L R, LFE
Частота : 48,0 КГц
Битовая глубина : 16 бит
Метод сжатия : С потерями
Размер потока : 430 Мбайт (11%)
Заголовок : TRACK_01_MVO_RUS_НТВ+
Язык : Russian
Default : Да
Forced : Да

Аудио #2
Идентификатор : 3
Формат : AC-3
Формат/Информация : Audio Coding 3
Расширение режима : CM (complete main)
Параметр Endianness формата : Big
Идентификатор кодека : A_AC3
Продолжительность : 2 ч. 14 м.
Вид битрейта : Постоянный
Битрейт : 448 Кбит/сек
Каналы : 6 каналов
Расположение каналов : Front: L C R, Side: L R, LFE
Частота : 48,0 КГц
Битовая глубина : 16 бит
Метод сжатия : С потерями
Размер потока : 430 Мбайт (11%)
Заголовок : TRACK_02_VO_RUS
Язык : Russian
Default : Нет
Forced : Нет

Аудио #3
Идентификатор : 4
Формат : AC-3
Формат/Информация : Audio Coding 3
Расширение режима : CM (complete main)
Параметр Endianness формата : Big
Идентификатор кодека : A_AC3
Продолжительность : 2 ч. 14 м.
Вид битрейта : Постоянный
Битрейт : 448 Кбит/сек
Каналы : 6 каналов
Расположение каналов : Front: L C R, Side: L R, LFE
Частота : 48,0 КГц
Битовая глубина : 16 бит
Метод сжатия : С потерями
Размер потока : 430 Мбайт (11%)
Заголовок : TRACK_03_ORIGINAL_KOR
Язык : Korean
Default : Нет
Forced : Нет

Текст #1
Идентификатор : 5
Формат : UTF-8
Идентификатор кодека : S_TEXT/UTF8
Идентификатор кодека/Информация : UTF-8 Plain Text
Заголовок : TEXT_01_SUB_RUS
Язык : Russian
Default : Нет
Forced : Нет

Текст #2
Идентификатор : 6
Формат : UTF-8
Идентификатор кодека : S_TEXT/UTF8
Идентификатор кодека/Информация : UTF-8 Plain Text
Заголовок : TEXT_02_SUB_ENG
Default : Нет
Forced : Нет

Меню
00:00:00.000 : :00:00:00.000
00:13:24.679 : :00:13:24.679
00:23:21.609 : :00:23:21.609
00:35:28.960 : :00:35:28.960
00:48:26.487 : :00:48:26.487
00:59:40.160 : :00:59:40.160
01:11:13.519 : :01:11:13.519
01:25:22.909 : :01:25:22.909
01:36:09.973 : :01:36:09.973
01:48:34.633 : :01:48:34.633
02:03:34.032 : :02:03:34.032
02:09:51.367 : :02:09:51.367
pic pic pic
Для увеличения картинки щелкните мышкой по превью

Этот торрент недоступен для скачивания без регистрации, однако доступен по публичной magnet-ссылке (источники с публичных трекеров). Перед использованием ссылки прочтите, пожалуйста Пользовательское соглашение, а также как можно дольше оставайтесь на раздаче! Для того, чтобы скачать сам торрент-файл (который видит больше источников), а также для того, чтобы поблагодарить релизера, вам необходимо зарегистрироваться. Если регистрироваться лень - вы можете также попробовать скачать релиз по нашим партнерским ссылкам ниже.

[underverse.su].t41727.torrent
Трекер: Зарегистрирован   [ 15.07.2014 13:28 ]  

Статус: проверено (by Паукан at 15.07.2014 13:29)
Поблагодарили: 1 человек
Тип торрента: публичный - доступные источники с открытых трекеров: 
Размер: 3,88 GB (занимает 0,89 DVDR, для записи нужно 1 болванка DVDR/RW)
 
 
Похожие темы
Форум Тема Автор Торрент Отв. Посл. сооб.
Зарубежное кино [HDDVDRip / BDRip / WEB-DL / HDTV 1080/720р] Божественное оружие / The Divine Weapon / Shin ge jeon (Ким Ю-джин) [2008 г., Боевик, Драма, BDRip 1080p] MVO (RUS, НТВ+) + VO (RUS, @PD) + Original (KOR) + Subs (RUS, ENG) Ведьмочка
1 | 0

0 | 497

0

11.08.2014 02:19

Зарубежное кино [HDDVDRip / BDRip / WEB-DL / HDTV 1080/720р] Божественное оружие / The Divine Weapon / Shin ge jeon (Ким Ю-джин) [2008 г., Боевик, Драма, BDRip 720p] MVO (RUS, НТВ+) + VO (RUS, @PD) + Original (KOR) + Subs (RUS, ENG) Ведьмочка
0 | 0

0 | 657

6

11.08.2014 02:24


Яндекс.Метрика powered by Sphinx


В Н И М А Н И Е
Сайт не распространяет и не хранит электронные версии произведений, а лишь бесплатно и без коммерческой выгоды (не требуя взамен платы,
SMS и т.д.) предоставляет доступ к создаваемому пользователями каталогу ссылок на торрент-файлы, которые содержат только списки хеш-сумм.
Убедительная просьба с жалобами обращаться напрямую к пользователю, разместившему торрент файл.

Вверх