Loading...
Error

Идеальный шторм / Perfect Storm (Вольфганг Петерсен / Wolfgang Petersen) [2000 г., триллер, драма, приключения, BDRip] Dub HQ Underverse

Статистика раздачи
Размер:  2,18 GB   |    Зарегистрирован:  2 года 4 месяца   |    Скачан:  15 раз

Полного источника не было: 2 дня 3 часа

Сидов:  0  |  0 KB/s  ]   Личеров:  0  |  0 KB/s  ]

* - сиды/пиры с внешних источников

   
 
Автор Сообщение

HQ Underverse 

14-Июл-2014 12:59

Идеальный шторм / Perfect Storm


Год выпуска: 2000
Жанр: триллер, драма, приключения
Страна: США
Режиссер: Вольфганг Петерсен / Wolfgang Petersen
В ролях: Джордж Клуни, Марк Уолберг, Дайан Лэйн, Джон Си Райли, Уильям Фихтнер, Джон Хоукс, Аллен Пэйн, Мэри Элизабет Мастрантонио, Карен Аллен, Черри Джонс
Сюжет фильма:
Волны Атлантики вздымаются на 100-футовую высоту. Завывающий ветер невиданной силы. Хэллоуин 1991 года. Стихия наступает на трех фронтах, и один из них — ураган «Грейс» — поднимает сильнейший в истории человечества шторм.

  • Мировая премьера: 26 июня 2000
  • Российская премьера: 29 июля 2000


Качество видео: BDRip

Продолжительность: 02:09:49
Формат: avi
Видео: XviD, 720x304, 2005 kbps
Аудио: русский, дублированный, AC3 5.1, 384 kbps

Код:

General
Complete name                    : D:\Video\Movies\Releases\Perfect.Storm.2000.BDRip.XviD.AC3.Rus.D.HQ.Underverse.avi
Format                           : AVI
Format/Info                      : Audio Video Interleave
Format profile                   : OpenDML
File size                        : 2.18 GiB
Duration                         : 2h 9mn
Overall bit rate                 : 2 402 Kbps
Writing application              : VirtualDubMod 1.5.10.3 | www.virtualdub-fr.org || (build 2550/release)
Writing library                  : VirtualDubMod build 2550/release

Video
ID                               : 0
Format                           : MPEG-4 Visual
Format profile                   : Streaming Video@L1
Format settings, BVOP            : Yes
Format settings, QPel            : No
Format settings, GMC             : No warppoints
Format settings, Matrix          : Custom
Codec ID                         : XVID
Codec ID/Hint                    : XviD
Duration                         : 2h 9mn
Bit rate                         : 2 006 Kbps
Width                            : 720 pixels
Height                           : 304 pixels
Display aspect ratio             : 2.35
Frame rate                       : 23.976 fps
Resolution                       : 24 bits
Colorimetry                      : 4:2:0
Scan type                        : Progressive
Bits/(Pixel*Frame)               : 0.382
Stream size                      : 1.82 GiB (84%)
Writing library                  : XviD 64

Audio
ID                               : 1
Format                           : AC-3
Format/Info                      : Audio Coding 3
Codec ID                         : 2000
Duration                         : 2h 9mn
Bit rate mode                    : Constant
Bit rate                         : 384 Kbps
Channel(s)                       : 6 channels
Channel positions                : Front: L C R, Surround: L R, LFE
Sampling rate                    : 48.0 KHz
Video delay                      : 22ms
Stream size                      : 357 MiB (16%)
Alignment                        : Split accross interleaves
Interleave, duration             : 42 ms (1.00 video frame)
Interleave, preload duration     : 500 ms
Title                            : Russian Dub

Семпл: http://multi-up.com/986289

Релиз группы:

picpicpicpic
Для увеличения картинки щелкните мышкой по превью

Этот торрент недоступен для скачивания без регистрации, однако доступен по публичной magnet-ссылке (источники с публичных трекеров). Перед использованием ссылки прочтите, пожалуйста Пользовательское соглашение, а также как можно дольше оставайтесь на раздаче! Для того, чтобы скачать сам торрент-файл (который видит больше источников), а также для того, чтобы поблагодарить релизера, вам необходимо зарегистрироваться. Если регистрироваться лень - вы можете также попробовать скачать релиз по нашим партнерским ссылкам ниже.

[underverse.su].t41690.torrent
Трекер: Зарегистрирован   [ 15.07.2014 12:09 ]  

Статус: проверено (by Паукан at 15.07.2014 12:10)
Поблагодарили: пока никто не поблагодарил...
Тип торрента: публичный - доступные источники с открытых трекеров: 
Размер: 2,18 GB (занимает 1/2 DVDR, для записи нужно 1 болванка DVDR/RW)
 
 
Похожие темы
Форум Тема Автор Торрент Отв. Посл. сооб.
T Зарубежное кино [DVDRip, Low-Res HDRip, и т.д.] Идеальный мужчина / Un homme ideal (Ян Гозлан / Yann Gozlan) [2015 г., триллер, HDRip] MVO (чистый звук) + Original (Fre) + Sub (Eng) 90ytr90
555 | 16

1 | 371

6

18.09.2016 18:02

Зарубежное кино [DVDRip, Low-Res HDRip, и т.д.] Идеальный студент / The Perfect Student (Майкл Фейфер) [2011 г., триллер, криминал, детектив, DVDRip] MVO + Original RG NewCinema
0 | 0

0 | 1593

30

26.10.2012 08:22

Зарубежное кино [DVDRip, Low-Res HDRip, и т.д.] Идеальный голос / Pitch Perfect (Джейсон Мур) [2012 г., комедия, музыка, HDRip] VO (zamez) 90ytr90
1 | 0

2 | 528

3

22.12.2012 20:15

Зарубежное кино [DVDRip, Low-Res HDRip, и т.д.] Идеальный голос / Pitch Perfect (Джейсон Мур) [2012 г., комедия, музыка, HDRip] VO (zamez) + Original 90ytr90
8 | 1

0 | 687

15

23.12.2012 08:25

Зарубежное кино [DVDRip, Low-Res HDRip, и т.д.] Идеальный голос / Pitch Perfect (Джейсон Мур / Jason Moore) [2012, комедия, музыка, HDRip] VO [zamez] Garnett
41 | 0

0 | 1320

7

08.01.2013 11:48

Зарубежное кино [DVDRip, Low-Res HDRip, и т.д.] Идеальный голос / Pitch Perfect (Джейсон Мур / Jason Moore) [2012 г., мелодрама, комедия, музыка, HDRip] Dub + Original Gaarochi
3 | 0

0 | 1224

19

09.05.2013 19:30

Зарубежное кино [DVDRip, Low-Res HDRip, и т.д.] Идеальный голос / Pitch Perfect ( Джейсон Мур / Jason Moore) [2013 г., мелодрама, комедия, музыка, HDRip] Dub Gaarochi
0 | 0

0 | 913

24

09.05.2013 19:56

Зарубежное кино [DVDRip, Low-Res HDRip, и т.д.] Идеальный конец / A Perfect Ending (Николь Конн) [2012 г., драма, DVDRip] VO Паукан
4 | 0

0 | 899

29

05.02.2014 15:48

Зарубежное кино [DVDRip, Low-Res HDRip, и т.д.] Идеальный шторм / The Perfect Storm (Вольфганг Петерсен) [2000 г., боевик, триллер, драма, приключения, HDRip] Dub ultarasbarcelona
17 | 0

0 | 650

14

25.04.2015 16:41

Зарубежное кино [DVDRip, Low-Res HDRip, и т.д.] Идеальный голос 2 / Pitch Perfect 2 (Элизабет Бэнкс) [2015 г., комедия, музыка, WEBRip] MVO makkol
16 | 0

0 | 567

17

18.07.2015 15:21


Яндекс.Метрика powered by Sphinx


В Н И М А Н И Е
Сайт не распространяет и не хранит электронные версии произведений, а лишь бесплатно и без коммерческой выгоды (не требуя взамен платы,
SMS и т.д.) предоставляет доступ к создаваемому пользователями каталогу ссылок на торрент-файлы, которые содержат только списки хеш-сумм.
Убедительная просьба с жалобами обращаться напрямую к пользователю, разместившему торрент файл.

Вверх