Loading...
Error

Другая женщина / Серии: 1-4 из 4 (Александр Басаев) [2014 г., мелодрама, SatRip]

Статистика раздачи
Размер:  2,15 GB   |    Зарегистрирован:  2 года 4 месяца   |    Скачан:  8 раз

Полного источника не было: 1 год 8 месяцев

Сидов:  0  |  0 KB/s  ]   Личеров:  0  |  0 KB/s  ]

* - сиды/пиры с внешних источников

   
 
Автор Сообщение

konopic Пол:Муж

14-Июл-2014 12:38

Другая женщина


Год выпуска: 2014
Жанр: мелодрама
Страна: Украина, Spintrex Holdings LTD
Режиссер: Александр Басаев
В ролях: Анна Невская, Никита Салопин, Екатерина Порубель, Любомирас Лауцявичюс, Станислав Эрдлей, Ирина Тё, Елена Ященко
Сюжет фильма:
Аня и Валера Хохловы поженились в юности по большой любви, прожили вместе семнадцать счастливых лет, помотались по военным гарнизонам, воспитывают двух детей. Идиллия рушится, когда Валера решает уволиться из армии, чтобы заняться бизнесом, и привозит семью в крупный город. На дне рождения мужа Аня с ужасом узнает, что у Валеры есть любовница - яркая и сексуальная Ника, директор рекламного агентства. Валера даже не пытается оправдаться и признаётся, что Ника - не просто любовница, а любимая женщина. Аня благородно переносит предательство и без упреков и скандалов отпускает Валеру.
Качество видео: SatRip

Продолжительность: 4 х ~ 00:46:00
Формат: AVI
Видео: 720x400, 25 fps, XviD, ~1544 kbps, 0.229 bit/pixel
Аудио: 48 kHz, MPEG Layer 3, 2 ch, 192 kbps

Код:

Общее
Полное имя : U:\Сериалы\Другая женщина (2014)\Другая женщина.(01.seriya).2014.XviD.SATRip.by.simka.avi
Формат : AVI
Формат/Информация : Audio Video Interleave
Размер файла : 551 Мбайт
Продолжительность : 44 м.
Общий поток : 1740 Кбит/сек
Программа кодирования : VirtualDubMod 1.5.10.3 | www.virtualdub-fr.org || (build 2550/release)
Библиотека кодирования : VirtualDubMod build 2550/release
Видео
Идентификатор : 0
Формат : MPEG-4 Visual
Профиль формата : Advanced Simple@L5
Параметр BVOP формата : 1
Параметр QPel формата : Нет
Параметр GMC формата : Без точки перехода
Параметр матрицы формата : Default (MPEG)
Идентификатор кодека : XVID
Идентификатор кодека/Подсказка : XviD
Продолжительность : 44 м.
Битрейт : 1538 Кбит/сек
Ширина : 720 пикселей
Высота : 400 пикселей
Соотношение сторон : 16:9
Частота кадров : 25,000 кадров/сек
Цветовое пространство : YUV
Субдискретизация насыщенности : 4:2:0
Битовая глубина : 8 бит
Тип развёртки : Прогрессивная
Метод сжатия : С потерями
Бит/(Пиксели*Кадры) : 0.214
Размер потока : 487 Мбайт (88%)
Библиотека кодирования : XviD 1.2.1 (UTC 2008-12-04)
Аудио
Идентификатор : 1
Формат : MPEG Audio
Версия формата : Version 1
Профиль формата : Layer 3
Режим : Joint stereo
Расширение режима : MS Stereo
Идентификатор кодека : 55
Идентификатор кодека/Подсказка : MP3
Продолжительность : 44 м.
Вид битрейта : Постоянный
Битрейт : 192 Кбит/сек
Каналы : 2 канала
Частота : 48,0 КГц
Метод сжатия : С потерями
Размер потока : 60,8 Мбайт (11%)
Выравнивание : Соединение по промежуткам
Продолжительность промежутка : 40 мс. (1,00 видеокадр)
Время предзагрузки промежутка : 504 мс.
Библиотека кодирования : LAME3.99r
Семпл: https://cloud.mail.ru/public/e5f897b05495/%D0%94%D1...Rip.by.simka.avi

picpicpicpicpicpic
Для увеличения картинки щелкните мышкой по превью

Этот торрент недоступен для скачивания без регистрации, однако доступен по публичной magnet-ссылке (источники с публичных трекеров). Перед использованием ссылки прочтите, пожалуйста Пользовательское соглашение, а также как можно дольше оставайтесь на раздаче! Для того, чтобы скачать сам торрент-файл (который видит больше источников), а также для того, чтобы поблагодарить релизера, вам необходимо зарегистрироваться. Если регистрироваться лень - вы можете также попробовать скачать релиз по нашим партнерским ссылкам ниже.

[underverse.su].t41688.torrent
Трекер: Зарегистрирован   [ 14.07.2014 12:38 ]  

Статус: проверено (by Ведьмочка at 14.07.2014 13:55)
Поблагодарили: 1 человек
Тип торрента: публичный - доступные источники с открытых трекеров: 
Размер: 2,15 GB (занимает 0,49 DVDR, для записи нужно 1 болванка DVDR/RW)
 
 
Похожие темы
Форум Тема Автор Торрент Отв. Посл. сооб.
T Зарубежное кино [DVDRip, Low-Res HDRip, и т.д.] Другая женщина / The Other Woman (Ник Кассаветис) [2014 г., мелодрама, комедия, HDRip] Dub [iTunes] Паукан
4 | 0

0 | 1685

100

18.07.2014 07:48

T Зарубежное кино [DVDRip, Low-Res HDRip, и т.д.] Другая женщина / The Other Woman (Ник Кассаветис) [2014 г., мелодрама, комедия, HDRip] Dub [iTunes] + Original Паукан
1 | 0

0 | 1334

34

18.07.2014 07:51

T Зарубежное кино [DVDRip, Low-Res HDRip, и т.д.] Другая женщина / The Other Woman (Ник Кассаветис / Nick Cassavetes) [2014 г., мелодрама, комедия, BDRip-AVC] Dub (iTunes) + Sub (Eng) 90ytr90
21 | 1

0 | 1841

30

22.07.2014 11:52

Зарубежное кино [DVDRip, Low-Res HDRip, и т.д.] Другая женщина / The Other Woman (Ник Кассаветис / Nick Cassavetes) [2014 г., мелодрама, комедия, BDRip-AVC] Dub (iTunes) + Original (Eng) + Sub (Eng) 90ytr90
1 | 0

0 | 1306

20

24.07.2014 11:37

Зарубежное кино [DVDRip, Low-Res HDRip, и т.д.] Другая женщина / The Other Woman (Ник Кассаветис / Nick Cassavetes) [2014 г., мелодрама, комедия, BDRip] Dub + Original (Eng) 90ytr90
4 | 0

0 | 576

19

22.08.2014 04:28

Зарубежное кино [DVDRip, Low-Res HDRip, и т.д.] Другая женщина / The Other Woman (Ник Кассаветис / Nick Cassavetes) [2014 г., мелодрама, комедия, BDRip-AVC] Dub + Original (Eng) + Subs 90ytr90
30 | 1

0 | 531

9

22.08.2014 04:39

Зарубежное кино [DVDRip, Low-Res HDRip, и т.д.] Другая женщина / The Other Woman (Ник Кассаветис / Nick Cassavetes) [2014 г., мелодрама, комедия, BDRip-AVC] Dub + Sub (Rus, Eng) 90ytr90
18 | 0

0 | 682

14

22.08.2014 04:51

Зарубежное кино [HDDVDRip / BDRip / WEB-DL / HDTV 1080/720р] Другая женщина / The Other Woman (Ник Кассаветис) [2014 г., Мелодрама, Комедия, BDRip 720p] Dub (Rus, iTunes Russia) + Subs (Eng) Ведьмочка
11 | 0

0 | 800

13

21.07.2014 13:38

Зарубежное кино [HDDVDRip / BDRip / WEB-DL / HDTV 1080/720р] Другая женщина / The Other Woman (Ник Кассаветис / Nick Cassavetes) [2014 г., мелодрама, комедия, BDRip 720p] Dub + Ukr + Original (Eng) + Subs 90ytr90
0 | 1

0 | 522

7

20.08.2014 10:21

Зарубежное кино [HDDVDRip / BDRip / WEB-DL / HDTV 1080/720р] Другая женщина / The Other Woman (Ник Кассаветис / Nick Cassavetes) [2014 г., мелодрама, комедия, BDRip 1080p] Dub + Ukr + Original (Eng) + Subs 90ytr90
1 | 0

0 | 580

4

21.08.2014 12:25


Яндекс.Метрика powered by Sphinx


В Н И М А Н И Е
Сайт не распространяет и не хранит электронные версии произведений, а лишь бесплатно и без коммерческой выгоды (не требуя взамен платы,
SMS и т.д.) предоставляет доступ к создаваемому пользователями каталогу ссылок на торрент-файлы, которые содержат только списки хеш-сумм.
Убедительная просьба с жалобами обращаться напрямую к пользователю, разместившему торрент файл.

Вверх