Loading...
Error

Рио 2 / Rio 2 (Карлос Салдана) [2014 г., мультфильм, комедия, приключения, семейный, BDRip] Dub (Rus,Ukr) + Original + Sub (Rus,Ukr,Eng) HQ Underverse

Статистика раздачи
Размер:  2,49 GB   |    Зарегистрирован:  2 года 4 месяца   |    Скачан:  38 раз
Сидов:  1  |  0 KB/s  ]   Личеров:  0  |  0 KB/s  ]

* - сиды/пиры с внешних источников

   
 
Автор Сообщение

HQ Underverse 

11-Июл-2014 06:41

Рио 2 / Rio 2


Год выпуска: 2014
Жанр: мультфильм, комедия, приключения, семейный
Страна: США
Режиссер: Карлос Салдана
Роли озвучивали: Энн Хэтэуэй, Джесси Айзенберг, Джейк Т. Остин, Карлиньюс Браун, Кристин Ченоуэт, Джемейн Клемент, Джим Конрой, Рэйчел Кроу, Бернардо де Паула, Нола Донкин
Сюжет фильма:
Голубчик, Жемчужинка и их трое детей живут счастливой жизнью в волшебном городе Рио-де-Жанейро. Когда Жемчужинка решает, что их детям нужно научиться жить как настоящим птицам, она настаивает на авантюрной поездке в дебри реки Амазонки. Там, пытаясь вписаться в новое окружение, Голубчик начинает беспокоиться, что может потерять Жемчужинку и детей, идущих на зов дикой природы.
|
Качество видео: BDRip

Продолжительность: 01:41:11
Формат: avi
Видео: XviD, 720x304, 2157 kbps
Аудио #1: русский, дублированный [лицензия], AC3 5.1, 448 kbps
Аудио #2: английский, оригинал, AC3 5.1, 448 kbps
Аудио #3: украинский, дублированный, AC3 5.1, 448 kbps (отдельным файлом)
Субтитры #1: внешние, SRT, украинский
Субтитры #2: внешние, SRT, русский
Субтитры #3: внешние, SRT, английский

Код:

General
Complete name                    : Y:\Рио 2\Rio.2.BDRip.XviD.AC3.Rus.D.Eng.O.HQ.Underverse.avi
Format                           : AVI
Format/Info                      : Audio Video Interleave
Format profile                   : OpenDML
File size                        : 2.17 GiB
Duration                         : 1h 41mn
Overall bit rate                 : 3 071 Kbps
Writing application              : VirtualDubMod 1.5.10.3 | www.virtualdub-fr.org || (build 2550/release)
Writing library                  : VirtualDubMod build 2550/release

Video
ID                               : 0
Format                           : MPEG-4 Visual
Format profile                   : Streaming Video@L1
Format settings, BVOP            : Yes
Format settings, QPel            : No
Format settings, GMC             : No warppoints
Format settings, Matrix          : Custom
Codec ID                         : XVID
Codec ID/Hint                    : XviD
Duration                         : 1h 41mn
Bit rate                         : 2 158 Kbps
Width                            : 720 pixels
Height                           : 304 pixels
Display aspect ratio             : 2.35
Frame rate                       : 23.976 fps
Resolution                       : 24 bits
Colorimetry                      : 4:2:0
Scan type                        : Progressive
Bits/(Pixel*Frame)               : 0.411
Stream size                      : 1.52 GiB (70%)
Writing library                  : XviD 64

Audio #1
ID                               : 1
Format                           : AC-3
Format/Info                      : Audio Coding 3
Codec ID                         : 2000
Duration                         : 1h 41mn
Bit rate mode                    : Constant
Bit rate                         : 448 Kbps
Channel(s)                       : 6 channels
Channel positions                : Front: L C R, Surround: L R, LFE
Sampling rate                    : 48.0 KHz
Stream size                      : 324 MiB (15%)
Alignment                        : Split accross interleaves
Interleave, duration             : 42 ms (1.00 video frame)
Interleave, preload duration     : 500 ms
Title                            : Russian (Русский)

Audio #2
ID                               : 2
Format                           : AC-3
Format/Info                      : Audio Coding 3
Codec ID                         : 2000
Duration                         : 1h 41mn
Bit rate mode                    : Constant
Bit rate                         : 448 Kbps
Channel(s)                       : 6 channels
Channel positions                : Front: L C R, Surround: L R, LFE
Sampling rate                    : 48.0 KHz
Stream size                      : 324 MiB (15%)
Alignment                        : Split accross interleaves
Interleave, duration             : 42 ms (1.00 video frame)
Interleave, preload duration     : 500 ms
Title                            : English

General
Complete name                    : Y:\Рио 2\Rio.2.BDRip.XviD.AC3.Rus.D.Eng.O.HQ.Underverse.UKR.ac3
Format                           : AC-3
Format/Info                      : Audio Coding 3
File size                        : 324 MiB
Duration                         : 1h 41mn
Overall bit rate                 : 448 Kbps

Audio
Format                           : AC-3
Format/Info                      : Audio Coding 3
Duration                         : 1h 41mn
Bit rate mode                    : Constant
Bit rate                         : 448 Kbps
Channel(s)                       : 6 channels
Channel positions                : Front: L C R, Surround: L R, LFE
Sampling rate                    : 48.0 KHz
Stream size                      : 324 MiB (100%)

Релиз группы:

picpicpic
Для увеличения картинки щелкните мышкой по превью

Этот торрент недоступен для скачивания без регистрации, однако доступен по публичной magnet-ссылке (источники с публичных трекеров). Перед использованием ссылки прочтите, пожалуйста Пользовательское соглашение, а также как можно дольше оставайтесь на раздаче! Для того, чтобы скачать сам торрент-файл (который видит больше источников), а также для того, чтобы поблагодарить релизера, вам необходимо зарегистрироваться. Если регистрироваться лень - вы можете также попробовать скачать релиз по нашим партнерским ссылкам ниже.

[underverse.su].t41599.torrent
Трекер: Зарегистрирован   [ 11.07.2014 06:41 ]  

Статус: проверено (by HQ Underverse at 11.07.2014 06:41)
Поблагодарили: 2 человека
Тип торрента: публичный - доступные источники с открытых трекеров: 
Размер: 2,49 GB (занимает 0,57 DVDR, для записи нужно 1 болванка DVDR/RW)
 
 
Похожие темы
Форум Тема Автор Торрент Отв. Посл. сооб.
T Зарубежные мультфильмы Рио 2 / Rio 2 (Карлос Салдана / Carlos Saldanha) [2014 г., мультфильм, комедия, приключения, семейный, HDRip] Dub (iTunes) 90ytr90
0 | 0

1 | 1280

122

05.07.2014 22:42

Зарубежные мультфильмы Рио 2 / Rio 2 (Карлос Салдана / Carlos Saldanha) [2014 г., мультфильм, комедия, приключения, семейный, BDRip-AVC] Dub (iTunes) + Original (Eng) + Sub (Eng) 90ytr90
2 | 0

0 | 1138

63

01.07.2014 11:56

T Мультфильмы [HDDVDRip / BDRip / WEB-DL / HDTV 1080/720р] Рио 2 / Rio 2 (Карлос Салдана / Carlos Saldanha) [2014 г., мультфильм, комедия, приключения, семейный, BDRip 720p] Dub (iTunes) + Original (Eng) + Sub (Eng, Rom) 90ytr90
0 | 0

0 | 1144

41

01.07.2014 11:49

Мультфильмы [HDDVDRip / BDRip / WEB-DL / HDTV 1080/720р] Рио 2 / Rio 2 (Карлос Салдана) [2014 г., Мультфильм, Комедия, Приключения, Семейный, BDRip 720p] Dub (Rus) + Original (Eng) + Subs (Rus, Eng) / 60 FPS Ведьмочка
1 | 1

0 | 1270

44

05.07.2014 14:01

TopHaqo 

14-Июл-2014 07:16

скажите, как подключить отдельный аудиофайл? КАКОЙ ПЛЕЕР ПОДДЕРЖИВАЕТ ЭТУ ФУНКЦИЮ?

Паукан Пол:Муж

17-Июл-2014 14:23

TopHaqo
Media Player Classic например, он сразу видит дороги.

Яндекс.Метрика powered by Sphinx


В Н И М А Н И Е
Сайт не распространяет и не хранит электронные версии произведений, а лишь бесплатно и без коммерческой выгоды (не требуя взамен платы,
SMS и т.д.) предоставляет доступ к создаваемому пользователями каталогу ссылок на торрент-файлы, которые содержат только списки хеш-сумм.
Убедительная просьба с жалобами обращаться напрямую к пользователю, разместившему торрент файл.

Вверх