Loading...
Error

300 спартанцев: Расцвет империи / 300: Rise of an Empire (Ноам Мурро / Noam Murro) [2014 г., фэнтези, боевик, драма, военный, BDRip] Dub + English HQ Underverse

Статистика раздачи
Размер:  2,17 GB   |    Зарегистрирован:  2 года 5 месяцев   |    Скачан:  29 раз
Сидов:  2  |  0 KB/s  ]   Личеров:  0  |  0 KB/s  ]

* - сиды/пиры с внешних источников

   
 
Автор Сообщение

HQ Underverse 

26-Июн-2014 17:37

300 спартанцев: Расцвет империи / 300: Rise of an Empire


Год выпуска: 2014
Жанр: фэнтези, боевик, драма, военный
Страна: США
Режиссер: Ноам Мурро / Noam Murro
В ролях: Салливан Степлтон, Ева Грин, Лина Хиди, Ханс Мэтисон, Родриго Санторо, Андрей Клод, Дэвид Уэнэм, Джек О`Коннелл, Марк Киллин, Эндрю Тирнан
Сюжет фильма:
После победы над царем Леонидом персидская армия во главе с Ксерксом движется на юг. На её пути оказывается флот Афин под руководством адмирала Фемистокла. Силы противников не равны, и Фемистокл вынужден вступить в союз с заклятым врагом афинского государства Спартой. Только объединившись у враждующих полисов-государств есть шанс что-то противопоставить могущественному Ксерксу.

  • Мировая премьера: 5 марта 2014
  • Российская премьера: 6 марта 2014


Качество видео: BDRip

Продолжительность: 01:42:35
Формат: avi
Видео: XviD, 720x304, 2119 kbps
Аудио #1: русский, дублированный [лицензия], AC3 5.1, 448 kbps
Аудио #2: английский, оригинал, AC3 5.1, 448 kbps

Код:

General
Complete name                    : D:\Video\Movies\Releases\300.Rise.of.an.Empire.2014.BDRip.XviD.AC3.Rus.D.Eng.O.HQ.Underverse.avi
Format                           : AVI
Format/Info                      : Audio Video Interleave
Format profile                   : OpenDML
File size                        : 2.17 GiB
Duration                         : 1h 42mn
Overall bit rate                 : 3 033 Kbps
Writing application              : VirtualDubMod 1.5.10.3 | www.virtualdub-fr.org || (build 2550/release)
Writing library                  : VirtualDubMod build 2550/release

Video
ID                               : 0
Format                           : MPEG-4 Visual
Format profile                   : Streaming Video@L1
Format settings, BVOP            : Yes
Format settings, QPel            : No
Format settings, GMC             : No warppoints
Format settings, Matrix          : Custom
Muxing mode                      : Packed bitstream
Codec ID                         : XVID
Codec ID/Hint                    : XviD
Duration                         : 1h 42mn
Bit rate                         : 2 120 Kbps
Width                            : 720 pixels
Height                           : 304 pixels
Display aspect ratio             : 2.35
Frame rate                       : 23.976 fps
Resolution                       : 24 bits
Colorimetry                      : 4:2:0
Scan type                        : Progressive
Bits/(Pixel*Frame)               : 0.404
Stream size                      : 1.52 GiB (70%)
Writing library                  : XviD 64

Audio #1
ID                               : 1
Format                           : AC-3
Format/Info                      : Audio Coding 3
Codec ID                         : 2000
Duration                         : 1h 42mn
Bit rate mode                    : Constant
Bit rate                         : 448 Kbps
Channel(s)                       : 6 channels
Channel positions                : Front: L C R, Surround: L R, LFE
Sampling rate                    : 48.0 KHz
Stream size                      : 329 MiB (15%)
Alignment                        : Split accross interleaves
Interleave, duration             : 42 ms (1.00 video frame)
Interleave, preload duration     : 500 ms
Title                            : Russian Dub

Audio #2
ID                               : 2
Format                           : AC-3
Format/Info                      : Audio Coding 3
Codec ID                         : 2000
Duration                         : 1h 42mn
Bit rate mode                    : Constant
Bit rate                         : 448 Kbps
Channel(s)                       : 6 channels
Channel positions                : Front: L C R, Surround: L R, LFE
Sampling rate                    : 48.0 KHz
Stream size                      : 329 MiB (15%)
Alignment                        : Split accross interleaves
Interleave, duration             : 42 ms (1.00 video frame)
Interleave, preload duration     : 500 ms
Title                            : English

Семпл: http://multi-up.com/982774

Релиз группы:

picpicpicpic
Для увеличения картинки щелкните мышкой по превью

Этот торрент недоступен для скачивания без регистрации, однако доступен по публичной magnet-ссылке (источники с публичных трекеров). Перед использованием ссылки прочтите, пожалуйста Пользовательское соглашение, а также как можно дольше оставайтесь на раздаче! Для того, чтобы скачать сам торрент-файл (который видит больше источников), а также для того, чтобы поблагодарить релизера, вам необходимо зарегистрироваться. Если регистрироваться лень - вы можете также попробовать скачать релиз по нашим партнерским ссылкам ниже.

[underverse.su].t41238.torrent
Трекер: Зарегистрирован   [ 26.06.2014 17:37 ]  

Статус: проверено (by Паукан at 27.06.2014 11:41)
Поблагодарили: 1 человек
Тип торрента: публичный - доступные источники с открытых трекеров: 
Размер: 2,17 GB (занимает 1/2 DVDR, для записи нужно 1 болванка DVDR/RW)
 
 
Похожие темы
Форум Тема Автор Торрент Отв. Посл. сооб.
Зарубежное кино [DVDRip, Low-Res HDRip, и т.д.] 300 спартанцев / 300 (Зак Снайдер) [2006 г., боевик, военный, история, BDRip] Dub puzzikat
13 | 0

6 | 2960

28

11.03.2014 15:47

Зарубежное кино [DVDRip, Low-Res HDRip, и т.д.] 300 спартанцев / 300 (Зак Снайдер / Zack Snyder) [2007 г., боевик, фэнтези, военный, BDRip] Dub + Original (Eng) + Subs 90ytr90
2 | 3

0 | 854

15

05.04.2014 20:53

Зарубежное кино [DVDRip, Low-Res HDRip, и т.д.] 300 спартанцев: Расцвет империи / 300: Rise of an Empire (Ноам Мурро / Noam Murro) [2014 г., боевик, драма, военный, BDRip] Dub + Original (Eng) + Subs 90ytr90
0 | 0

0 | 1161

8

23.07.2014 14:48

Зарубежное кино [DVDRip, Low-Res HDRip, и т.д.] 300 спартанцев: Расцвет империи / 300: Rise of an Empire (Ноам Мурро / Noam Murro) [2014 г., боевик, драма, военный, BDRip-AVC] Dub + AVO (Есарев) + Ukr + Original (Eng) + Sub (Rus, Eng) 90ytr90
2 | 0

0 | 1139

8

23.07.2014 15:13

Зарубежное кино [DVDRip, Low-Res HDRip, и т.д.] 300 спартанцев: Расцвет империи / 300: Rise of an Empire (Ноам Мурро / Noam Murro) [2014 г., боевик, драма, военный, HDRip] Dub 90ytr90
71 | 5

0 | 1341

51

23.07.2014 15:25

Зарубежное кино [HDDVDRip / BDRip / WEB-DL / HDTV 1080/720р] 300 спартанцев: Расцвет империи / 300: Rise of an Empire (Ноам Мурро / Noam Murro) [2014 г., боевик, драма, военный, BDRip 720p] Dub + AVO (Есарев) + Ukr + Original (Eng) + Subs 90ytr90
0 | 0

0 | 692

8

23.07.2014 15:03

Зарубежное кино [HDDVDRip / BDRip / WEB-DL / HDTV 1080/720р] 300 спартанцев: Расцвет империи / 300: Rise of an Empire (Ноам Мурро / Noam Murro) [2014 г., боевик, драма, военный, BDRip 1080p] Dub + AVO (Есарев) + Ukr + Original (Eng) + Subs 90ytr90
2 | 0

0 | 732

12

23.07.2014 15:43


Яндекс.Метрика powered by Sphinx


В Н И М А Н И Е
Сайт не распространяет и не хранит электронные версии произведений, а лишь бесплатно и без коммерческой выгоды (не требуя взамен платы,
SMS и т.д.) предоставляет доступ к создаваемому пользователями каталогу ссылок на торрент-файлы, которые содержат только списки хеш-сумм.
Убедительная просьба с жалобами обращаться напрямую к пользователю, разместившему торрент файл.

Вверх