Loading...
Error

Сашка / Серии:1-100 из 100 ( Антон Гойда, Владимир Дяченко) [2014 г., мелодрама, SatRip]

Статистика раздачи
Размер:  53,23 GB   |    Зарегистрирован:  2 года 5 месяцев   |    Скачан:  5 раз

Полного источника не было: 3 месяца 25 дней

Сидов:  0  |  0 KB/s  ]   Личеров:  0  |  0 KB/s  ]

* - сиды/пиры с внешних источников

   
 
Автор Сообщение

konopic Пол:Муж

19-Июн-2014 12:07

Сашка


Год выпуска: 2014
Жанр: мелодрама
Страна: Россия,Украина, кинокомпания Pro-TV и Телеканал"Украина"
Режиссер: Антон Гойда, Владимир Дяченко
В ролях: Анна Кошмал, Ани Лорак, Александр Давыдов (VIII), Дмитрий Лаленков, Сергей Романюк, Оксана Сташенко, Александр Лобанов (III), Ирина Мельник, Александр Суворов (III), Фёдор Гуринец, Костя Чернокрылюк, Виктория Билан, Наталия Денисенко, Михаил Федорченко, Марина Дьяконенко, Наталья Корецкая
Сюжет фильма:
В новой картине собственного производства канала "Украина" "Сашка" актрисе Анне Кошмал предстоит сыграть детдомовскую девушку-сорванца. В 18 лет она окажется на улице с пустыми карманами и огромным талантом. Сашка отлично разбирается в автомобилях, пытается устроиться на работу автомехаником и мечтает создать собственную модель автомобиля. Однако неожиданная встреча с молодым и перспективным политиком Андреем Марчуком круто изменит всю ее жизнь. Саше предстоит пройти через множество житейских трудностей и личных разочарований. Но, благодаря жизнелюбию, оптимизму и стойкости, она обретет счастье, семью и истинную любовь.


Качество видео: SatRip

Продолжительность: ~00:45:00 серия
Формат: AVI
Видео: 704x384, 25 fps, XviD, ~1341 kbps, 0.198 bit/pixel
Аудио: 48 kHz, MPEG Layer 3, 2 ch, 192 kbps

Код:

Общее
Полное имя : R:\Сериалы 2014\Сашка (2014) Канал Украина\Сашка.(001.seriya).2014.XviD.SATRip.by.simka.avi
Формат : AVI
Формат/Информация : Audio Video Interleave
Размер файла : 501 Мбайт
Продолжительность : 45 м.
Общий поток : 1543 Кбит/сек
Программа кодирования : VirtualDubMod 1.5.10.3 | www.virtualdub-fr.org || (build 2550/release)
Библиотека кодирования : VirtualDubMod build 2550/release
Видео
Идентификатор : 0
Формат : MPEG-4 Visual
Профиль формата : Advanced Simple@L5
Параметр BVOP формата : 1
Параметр QPel формата : Нет
Параметр GMC формата : Без точки перехода
Параметр матрицы формата : Default (H.263)
Идентификатор кодека : XVID
Идентификатор кодека/Подсказка : XviD
Продолжительность : 45 м.
Битрейт : 1341 Кбит/сек
Ширина : 704 пикселя
Высота : 384 пикселя
Соотношение сторон : 1,85:1
Частота кадров : 25,000 кадров/сек
Цветовое пространство : YUV
Субдискретизация насыщенности : 4:2:0
Битовая глубина : 8 бит
Тип развёртки : Прогрессивная
Метод сжатия : С потерями
Бит/(Пиксели*Кадры) : 0.198
Размер потока : 436 Мбайт (87%)
Библиотека кодирования : XviD 1.2.1 (UTC 2008-12-04)
Аудио
Идентификатор : 1
Формат : MPEG Audio
Версия формата : Version 1
Профиль формата : Layer 3
Режим : Joint stereo
Расширение режима : MS Stereo
Идентификатор кодека : 55
Идентификатор кодека/Подсказка : MP3
Продолжительность : 45 м.
Вид битрейта : Постоянный
Битрейт : 192 Кбит/сек
Каналы : 2 канала
Частота : 48,0 КГц
Метод сжатия : С потерями
Размер потока : 62,4 Мбайт (12%)
Выравнивание : Соединение по промежуткам
Продолжительность промежутка : 40 мс. (1,00 видеокадр)
Время предзагрузки промежутка : 504 мс.
Библиотека кодирования : LAME3.99r
Настройки программы : -m j -V 4 -q 2 -lowpass 18.6 -b 192
picpicpicpicpicpic
Для увеличения картинки щелкните мышкой по превью

Этот торрент недоступен для скачивания без регистрации, однако доступен по публичной magnet-ссылке (источники с публичных трекеров). Перед использованием ссылки прочтите, пожалуйста Пользовательское соглашение, а также как можно дольше оставайтесь на раздаче! Для того, чтобы скачать сам торрент-файл (который видит больше источников), а также для того, чтобы поблагодарить релизера, вам необходимо зарегистрироваться. Если регистрироваться лень - вы можете также попробовать скачать релиз по нашим партнерским ссылкам ниже.

[underverse.su].t41076.torrent
Трекер: Зарегистрирован   [ 19.06.2014 12:07 ]  

Статус: проверено (by nemos at 20.06.2014 16:22)
Поблагодарили: 1 человек
Тип торрента: публичный - доступные источники с открытых трекеров: 
Размер: 53,23 GB (занимает 12,16 DVDR, для записи нужно 13 болванок DVDR/RW)
 
 


Последний раз редактировалось: konopic (20.06.2014 15:54), всего редактировалось 2 раз(а)

konopic Пол:Муж

20-Июн-2014 15:56

Готово.

nemos Пол:Муж

20-Июн-2014 16:23

:good:

konopic писал(а):

Готово.

Яндекс.Метрика powered by Sphinx


В Н И М А Н И Е
Сайт не распространяет и не хранит электронные версии произведений, а лишь бесплатно и без коммерческой выгоды (не требуя взамен платы,
SMS и т.д.) предоставляет доступ к создаваемому пользователями каталогу ссылок на торрент-файлы, которые содержат только списки хеш-сумм.
Убедительная просьба с жалобами обращаться напрямую к пользователю, разместившему торрент файл.

Вверх