Loading...
Error

Восьмерка (Алексей Учитель) [2014 г., боевик, мелодрама, WEB-DLRip]

Статистика раздачи
Размер:  1,37 GB   |    Зарегистрирован:  2 года 5 месяцев   |    Скачан:  93 раза
Сидов:  1  |  0 KB/s  ]   Личеров:  0  |  0 KB/s  ]

* - сиды/пиры с внешних источников

   
 
Автор Сообщение

konopic Пол:Муж

19-Июн-2014 11:49

Восьмерка


Год выпуска: 2014
Жанр: боевик, мелодрама
Страна: Россия
Режиссер: Алексей Учитель
В ролях: Артур Смольянинов, Вильма Кутавичюте, Алексей Манцыгин, Александр Новин, Артем Быстров,Павел Ворожцов, Захар Прилепин, Ирина Пегова, Сергей Пускепалис, Владимир Пирожок
Сюжет фильма:
Любовь без тормозов становится причиной смертельной схватки между четверкой молодых парней из спецназа и бандой, которая держит в страхе весь город. Динамичная, эмоциональная история о любви и настоящей дружбе…

  • Российская премьера: 8 мая 2014

Качество видео: WEB-DLRip

Продолжительность: 01:21:00
Формат: AVI
Видео: 720x400 (1.80:1), 25 fps, XviD build 50 ~2001 kbps avg, 0.28 bit/pixel
Аудио: AC3, 384 Kb/s (6 ch)

Код:



Общее
Полное имя                               : D:\Раздачи\8smerka.2014.O.WEB-DLRip.1400MB.avi
Формат                                   : AVI
Формат/Информация                        : Audio Video Interleave
Размер файла                             : 1,37 Гбайт
Продолжительность                        : 1 ч. 21 м.
Общий поток                              : 2394 Кбит/сек
Программа кодирования                    : VirtualDubMod 1.5.10.3 | (build 2550/release)
Библиотека кодирования                   : VirtualDubMod build 2550/release

Видео
Идентификатор                            : 0
Формат                                   : MPEG-4 Visual
Профиль формата                          : Advanced Simple@L5
Параметр BVOP формата                    : 2
Параметр QPel формата                    : Нет
Параметр GMC формата                     : Без точки перехода
Параметр матрицы формата                 : Default (H.263)
Идентификатор кодека                     : XVID
Идентификатор кодека/Подсказка           : XviD
Продолжительность                        : 1 ч. 21 м.
Битрейт                                  : 2001 Кбит/сек
Ширина                                   : 720 пикселей
Высота                                   : 400 пикселей
Соотношение сторон                       : 16:9
Частота кадров                           : 25,000 кадров/сек
Цветовое пространство                    : YUV
Субдискретизация насыщенности            : 4:2:0
Битовая глубина                          : 8 бит
Тип развёртки                            : Прогрессивная
Метод сжатия                             : С потерями
Бит/(Пиксели*Кадры)                      : 0.278
Размер потока                            : 1,14 Гбайт (84%)
Библиотека кодирования                   : XviD 1.2.1 (UTC 2008-12-04)

Аудио
Идентификатор                            : 1
Формат                                   : AC-3
Формат/Информация                        : Audio Coding 3
Расширение режима                        : CM (complete main)
Параметр Endianness формата              : Big
Идентификатор кодека                     : 2000
Продолжительность                        : 1 ч. 21 м.
Вид битрейта                             : Постоянный
Битрейт                                  : 384 Кбит/сек
Каналы                                   : 6 каналов
Расположение каналов                     : Front: L C R, Side: L R, LFE
Частота                                  : 48,0 КГц
Битовая глубина                          : 16 бит
Метод сжатия                             : С потерями
Размер потока                            : 225 Мбайт (16%)
Выравнивание                             : Разделение по промежуткам
Продолжительность промежутка             : 40  мс. (1,00 видеокадр)
Время предзагрузки промежутка            : 500  мс.
picpicpicpicpic
Для увеличения картинки щелкните мышкой по превью

Этот торрент недоступен для скачивания без регистрации, однако доступен по публичной magnet-ссылке (источники с публичных трекеров). Перед использованием ссылки прочтите, пожалуйста Пользовательское соглашение, а также как можно дольше оставайтесь на раздаче! Для того, чтобы скачать сам торрент-файл (который видит больше источников), а также для того, чтобы поблагодарить релизера, вам необходимо зарегистрироваться. Если регистрироваться лень - вы можете также попробовать скачать релиз по нашим партнерским ссылкам ниже.

[underverse.su].t41075.torrent
Трекер: Зарегистрирован   [ 19.06.2014 11:49 ]  

Статус: проверено (by nemos at 20.06.2014 16:15)
Поблагодарили: 3 человека
Тип торрента: публичный - доступные источники с открытых трекеров: 
Размер: 1,37 GB (занимает 0,31 DVDR, для записи нужно 1 болванка DVDR/RW)
 
 
Похожие темы
Форум Тема Автор Торрент Отв. Посл. сооб.
Наше кино [DVDRip, Low-Res HDRip, и т.д.] Восьмерка (Алексей Учитель) [2013 г., боевик, мелодрама, WEB-DLRip-AVC] 90ytr90
2 | 0

0 | 820

32

31.07.2014 05:42

Зарубежное кино [HDDVDRip / BDRip / WEB-DL / HDTV 1080/720р] Восьмерка (Алексей Учитель) [2013 г., боевик, мелодрама, WEB-DL 720p] 90ytr90
5 | 1

0 | 782

44

31.07.2014 05:51

Наше кино [HDDVDRip / BDRip / WEB-DL / HDTV 1080/720р] Восьмерка (Алексей Учитель) [2013, Россия, драма, WEB-DL 1080p] uzi2009
0 | 0

0 | 811

10

15.09.2014 08:18



Последний раз редактировалось: konopic (20.06.2014 15:33), всего редактировалось 4 раз(а)

konopic Пол:Муж

20-Июн-2014 15:42

Все подправил!!! :oops:

nemos Пол:Муж

20-Июн-2014 16:16

konopic писал(а):

Все подправил!!! :oops:
Вот и отличненько!

МИЖГАН75 Пол:Муж

24-Авг-2014 15:29

Фильм неплох

Яндекс.Метрика powered by Sphinx


В Н И М А Н И Е
Сайт не распространяет и не хранит электронные версии произведений, а лишь бесплатно и без коммерческой выгоды (не требуя взамен платы,
SMS и т.д.) предоставляет доступ к создаваемому пользователями каталогу ссылок на торрент-файлы, которые содержат только списки хеш-сумм.
Убедительная просьба с жалобами обращаться напрямую к пользователю, разместившему торрент файл.

Вверх