Loading...
Error

Пляж (1-32 серия из 32) (Дмитрий Пантелеев) [2014 г., комедия, детектив, SatRip]

Статистика раздачи
Размер:  18,48 GB   |    Зарегистрирован:  2 года 4 месяца   |    Скачан:  18 раз

Полного источника не было: 4 месяца 23 дня

Сидов:  0  |  0 KB/s  ]   Личеров:  0  |  0 KB/s  ]

* - сиды/пиры с внешних источников

   
 
Автор Сообщение

nemos Пол:Муж

16-Июн-2014 14:06

Пляж


Год выпуска: 2014
Жанр: комедия, детектив
Страна: Россия , Украина ,"Браво"
Режиссер: Дмитрий Пантелеев
В ролях: Павел Делонг, Георгий Дронов, Заза Чантурия, Анна Топчий, Виталий Салий, Александр Перков, Дана Агишева, Николай Григоренко, Алексей Смолка, Мария Цап-Страшилина, Георгий Хостикоев, Елена Баламутова, Саак Дурян, Арсен Босенко, Олег Шевчук, Дмитрий Захаров, Анна Сагайдачная, Алена Алымова, Иванна Бжезинская, Михаил Досенко, Марк Дробот, Андрей Мельников
Сюжет фильма:
Главный герой сериала «Пляж» – бывший милиционер Парамонов из маленького курортного городка Азовска, расположенного в Краснодарском крае. Честный и неподкупный, искренне стремившийся бороться с преступностью, не идя ни на какие компромиссы с совестью, он был белой вороной на фоне своих коллег, подавляющее большинство которых состояло из алкоголиков, карьеристов и взяточников.С тех пор прошло восемь лет. Парамонов, твердо решив начать новую, спокойную жизнь, сменил много мест работы и в итоге стал директором местного пляжа. Но окончательно поставить крест на своей прежней профессии ему так и не удалось. Его лучший друг и бывший коллега Дашко, который дослужился до начальника того самого РОВД, который когда-то покинул Парамонов, по старой памяти постоянно обращается к нему за помощью в расследовании запутанных преступлений.


Качество видео: SatRip

Продолжительность: 00:44:46 серия
Формат: AVI
Видео: DivX, 720x448, 1500 kbps
Аудио: русский, MP3 2.0, 128 kbps

Код:

D:\Фильмы (роздача)\Pljazh.SATRip\Pljazh.01.SATRip.avi
   General
      Complete name : D:\Фильмы (роздача)\Pljazh.SATRip\Pljazh.01.SATRip.avi
      Format : AVI
      Format/Info : Audio Video Interleave
      File size : 525 MiB
      Duration : 44mn 46s
      Overall bit rate : 1 638 Kbps
      Writing library : VirtualDub build 35491/release
   Video #0
      ID : 0
      Format : MPEG-4 Visual
      Format settings, BVOP : 1
      Format settings, QPel : No
      Format settings, GMC : No warppoints
      Format settings, Matrix : Default (H.263)
      Muxing mode : Packed bitstream
      Codec ID : DX50
      Codec ID/Hint : DivX 5
      Duration : 44mn 46s
      Bit rate : 1 500 Kbps
      Width : 720 pixels
      Height : 448 pixels
      Display aspect ratio : 1.607
      Frame rate : 25.000 fps
      Color space : YUV
      Chroma subsampling : 4:2:0
      Bit depth : 8 bits
      Scan type : Progressive
      Compression mode : Lossy
      Bits/(Pixel*Frame) : 0.186
      Stream size : 480 MiB (92%)
      Writing library : DivX 6.8.5 (UTC 2009-08-20)
   Audio #1
      ID : 1
      Format : MPEG Audio
      Format version : Version 1
      Format profile : Layer 3
      Mode : Joint stereo
      Codec ID : 55
      Codec ID/Hint : MP3
      Duration : 44mn 46s
      Bit rate mode : Constant
      Bit rate : 128 Kbps
      Channel(s) : 2 channels
      Sampling rate : 48.0 KHz
      Compression mode : Lossy
      Stream size : 41.0 MiB (8%)
      Alignment : Split accross interleaves
      Interleave, duration : 40 ms (1.00 video frame)
      Interleave, preload duration : 500 ms
picpicpicpicpicpicpicpicpicpicpicpicpicpic
Для увеличения картинки щелкните мышкой по превью

Этот торрент недоступен для скачивания без регистрации, однако доступен по публичной magnet-ссылке (источники с публичных трекеров). Перед использованием ссылки прочтите, пожалуйста Пользовательское соглашение, а также как можно дольше оставайтесь на раздаче! Для того, чтобы скачать сам торрент-файл (который видит больше источников), а также для того, чтобы поблагодарить релизера, вам необходимо зарегистрироваться. Если регистрироваться лень - вы можете также попробовать скачать релиз по нашим партнерским ссылкам ниже.

[underverse.su].t41584.torrent
Трекер: Зарегистрирован   [ 10.07.2014 20:10 ]  

Статус: проверено (by nemos at 10.07.2014 20:11)
Поблагодарили: 8 человек
Тип торрента: публичный - доступные источники с открытых трекеров: 
Размер: 18,48 GB (занимает 4,22 DVDR, для записи нужно 5 болванок DVDR/RW)
 
 


Последний раз редактировалось: nemos (06.11.2014 07:54), всего редактировалось 9 раз(а)

nemos Пол:Муж

17-Июн-2014 19:23

Внимание! Данная раздача обновлена . 32 серии.

Яндекс.Метрика powered by Sphinx


В Н И М А Н И Е
Сайт не распространяет и не хранит электронные версии произведений, а лишь бесплатно и без коммерческой выгоды (не требуя взамен платы,
SMS и т.д.) предоставляет доступ к создаваемому пользователями каталогу ссылок на торрент-файлы, которые содержат только списки хеш-сумм.
Убедительная просьба с жалобами обращаться напрямую к пользователю, разместившему торрент файл.

Вверх