Loading...
Error

Скорый «Москва-Россия» (Игорь Волошин) [2014, комедия, приключения, BDRip]

Статистика раздачи
Размер:  1,46 GB   |    Зарегистрирован:  2 года 5 месяцев   |    Скачан:  25 раз

Полного источника не было: 17 часов

Сидов:  0  |  0 KB/s  ]   Личеров:  0  |  0 KB/s  ]

* - сиды/пиры с внешних источников

   
 
Автор Сообщение

uzi2009 Пол:Муж

15-Июн-2014 17:13

Скорый «Москва-Россия»

Жанр: комедия, приключения, драма, мелодрама
Год выпуска: 2014
Продолжительность: 01:24:40

Режиссёр: Игорь Волошин

В ролях: Сергей Светлаков, Маргарита Левиева, Павел Деревянко, Майкл Мэдсен, Ингеборга Дапкунайте, Спартак Кондауров, Максим Голополосов, Иван Ургант, Виктор Проскурин, Ольга Симонова

Описание: Это история про парня, который душу готов продать, лишь бы набрать миллион просмотров для своего видео на YouTube. На пути к своей цели он оказывается в скором поезде «Москва - Владивосток», где сталкивается с американской актрисой, страдающей аэрофобией. В пути незнакомцев ожидают такие приключения, что они отстают от поезда, который пытаются догнать, продвигаясь по нашей непредсказуемой и сказочной России-матушке… Ведь каждому из них нужно оказаться во Владивостоке ровно через 7 дней - по причинам, которые они тщательно скрывают друг от друга.



Качество видео: BDRip (Исходник: Blu-Ray Remux (1080i) от ExKinoRay)
Формат видео: AVI

Видео: XviD, 704x304 (2.35:1), 25 кадр/с, 2014 Кбит/с
Аудио: Русский, Dolby AC3, 48000 Гц, 448 Кбит/с, 6 каналов (5.1)



Автор рипа - ivandubskoj
General
Complete name : Skoryy.Moskva.Rossiya.2014.BDRip.avi
Format : AVI
Format/Info : Audio Video Interleave
File size : 1.46 GiB
Duration : 1h 24mn
Overall bit rate : 2 470 Kbps
Movie name : Скорый «Москва-Россия» (2014) BDRip
Genre : Комедия, приключения
Recorded date : 11.06.2014
Writing application : VirtualDubMod 1.5.10.3 | www.virtualdub-fr.org || (build 2550/release)
Writing library : VirtualDubMod build 2550/release
Copyright : rip by ivandubskoj

Video
ID : 0
Format : MPEG-4 Visual
Format profile : Advanced Simple@L5
Format settings, BVOP : 1
Format settings, QPel : No
Format settings, GMC : No warppoints
Format settings, Matrix : Custom
Codec ID : XVID
Codec ID/Hint : XviD
Duration : 1h 24mn
Bit rate : 2 014 Kbps
Width : 704 pixels
Height : 304 pixels
Display aspect ratio : 2.35:1
Frame rate : 25.000 fps
Color space : YUV
Chroma subsampling : 4:2:0
Bit depth : 8 bits
Scan type : Progressive
Compression mode : Lossy
Bits/(Pixel*Frame) : 0.376
Stream size : 1.19 GiB (82%)
Writing library : XviD 73

Audio
ID : 1
Format : AC-3
Format/Info : Audio Coding 3
Mode extension : CM (complete main)
Codec ID : 2000
Duration : 1h 24mn
Bit rate mode : Constant
Bit rate : 448 Kbps
Channel(s) : 6 channels
Channel positions : Front: L C R, Side: L R, LFE
Sampling rate : 48.0 KHz
Bit depth : 16 bits
Compression mode : Lossy
Stream size : 271 MiB (18%)
Alignment : Split accross interleaves
Interleave, duration : 64 ms (1.60 video frames)
Interleave, preload duration : 500 ms
Title : Russian
pic pic pic pic

Этот торрент недоступен для скачивания без регистрации, однако доступен по публичной magnet-ссылке (источники с публичных трекеров). Перед использованием ссылки прочтите, пожалуйста Пользовательское соглашение, а также как можно дольше оставайтесь на раздаче! Для того, чтобы скачать сам торрент-файл (который видит больше источников), а также для того, чтобы поблагодарить релизера, вам необходимо зарегистрироваться. Если регистрироваться лень - вы можете также попробовать скачать релиз по нашим партнерским ссылкам ниже.

[underverse.su].t40984.torrent
Трекер: Зарегистрирован   [ 15.06.2014 17:13 ]  

Статус: проверено (by garry at 16.06.2014 22:22)
Поблагодарили: 1 человек
Тип торрента: публичный - доступные источники с открытых трекеров: 
Размер: 1,46 GB (занимает 0,33 DVDR, для записи нужно 1 болванка DVDR/RW)
 
 
Похожие темы
Форум Тема Автор Торрент Отв. Посл. сооб.
Наше кино [DVDRip, Low-Res HDRip, и т.д.] Скорый «Москва-Россия» (Игорь Волошин) [2014 г., комедия, приключения, BDRip-AVC] 90ytr90
3 | 0

0 | 996

46

01.07.2014 11:25

Наше кино [DVD / HDDVD / BD / Remux] Скорый «Москва-Россия» (Игорь Волошин) [2014, комедия, приключения, Blu-ray disc] uzi2009
1 | 0

0 | 659

8

17.06.2014 06:59

Наше кино [HDDVDRip / BDRip / WEB-DL / HDTV 1080/720р] Скорый «Москва-Россия» (Игорь Волошин) [2014 г., комедия, приключения, BDRip 720p] 90ytr90
0 | 0

0 | 465

12

10.06.2014 05:09

Наше кино [HDDVDRip / BDRip / WEB-DL / HDTV 1080/720р] Скорый «Москва-Россия» (Игорь Волошин) [2014 г., комедия, приключения, BDRip 1080p] 90ytr90
0 | 0

0 | 379

20

10.06.2014 08:21

16-Июн-2014 22:20

Топик был перенесен из форума Наше кино [HDDVDRip / BDRip / WEB-DL / HDTV 1080/720р] в форум Наше кино [DVDRip, Low-Res HDRip, и т.д.]


gari
 

Яндекс.Метрика powered by Sphinx


В Н И М А Н И Е
Сайт не распространяет и не хранит электронные версии произведений, а лишь бесплатно и без коммерческой выгоды (не требуя взамен платы,
SMS и т.д.) предоставляет доступ к создаваемому пользователями каталогу ссылок на торрент-файлы, которые содержат только списки хеш-сумм.
Убедительная просьба с жалобами обращаться напрямую к пользователю, разместившему торрент файл.

Вверх