Loading...
Error

Агенты Щ.И.Т. / Marvel's Agents of S.H.I.E.L.D. / Сезон: 1 / Серии: 1-22 из 22 (Джосс Уидон) [2013-14 г., фантастика, боевик, драма, WEB-DLRip] MVO (Lostfilm)

Статистика раздачи
Размер:  9,39 GB   |    Зарегистрирован:  2 года 5 месяцев   |    Скачан:  18 раз
Сидов:  1  |  0 KB/s  ]   Личеров:  0  |  0 KB/s  ]

* - сиды/пиры с внешних источников

   
 
Автор Сообщение

yejik123 

14-Июн-2014 10:49

Агенты Щ.И.Т. / Marvel's Agents of S.H.I.E.L.D. / Сезон: 1 / Серии: 1-22 из 22


Год выпуска: 2013 - 2014
Жанр: Фантастика, боевик, драма
Страна: США
Режиссер: Джосс Уидон
В ролях: Кларк Грегг, Минг-На Вен, Бретт Далтон, Хлоя Беннет, Йен де Кестекер, Элизабет Хенстридж
Сюжет фильма:
Агент Фил Колсон (Кларк Грегг) и его коллеги из секретной организации Щ.И.Т. — бойцы невидимого фронта, которые стоят на защите мира и спокойствия жителей Земли. Многое изменилось после вторжения пришельцев в Нью-Йорк. Начали появляться новые супергерои, которые далеко не всегда выступают на стороне добра и справедливости. Кроме того, людям стали доступны новые технологии и даже артефакты внеземного происхождения, которые могут натворить немало бед, если попадут не в те руки. За всем этим следит таинственный Щ.И.Т. и если что-то выйдет из-под контроля, лучшие агенты организации найдут способ ликвидировать угрозу.

Сайт сериала: http://abc.go.com/shows/marvels-agents-of-shield

Качество видео: WEB-DLRip

Продолжительность: 00:44:00 x 22
Формат: AVI
Видео: XviD, 720x400, ~1878 kbps
Аудио: русский, многоголосый закадровый [профессиональный], MP3 2.0, 192 kbps

Код:

Общее
Полное имя                               : E:\Видео\Marvels.Agents.of.S.H.I.E.L.D. 1 - LostFilm.TV\Marvels.Agents.of.S.H.I.E.L.D.S01E01.rus.LostFilm.TV.avi
Формат                                   : AVI
Формат/Информация                        : Audio Video Interleave
Размер файла                             : 657 Мбайт
Продолжительность                        : 44 м.
Режим общего битрейта                    : Переменный
Общий поток                              : 2078 Кбит/сек
Программа кодирования                    : Nandub v1.0rc2
Библиотека кодирования                   : Nandub build 1853/release

Видео
Идентификатор                            : 0
Формат                                   : MPEG-4 Visual
Профиль формата                          : Simple@L3
Параметр BVOP формата                    : Нет
Параметр QPel формата                    : Нет
Параметр GMC формата                     : Без точки перехода
Параметр матрицы формата                 : Default (H.263)
Идентификатор кодека                     : XVID
Идентификатор кодека/Подсказка           : XviD
Продолжительность                        : 44 м.
Битрейт                                  : 1878 Кбит/сек
Ширина                                   : 720 пикселей
Высота                                   : 400 пикселей
Соотношение сторон                       : 16:9
Частота кадров                           : 23,976 кадра/сек
Цветовое пространство                    : YUV
Субдискретизация насыщенности            : 4:2:0
Битовая глубина                          : 8 бит
Тип развёртки                            : Прогрессивная
Метод сжатия                             : С потерями
Бит/(Пиксели*Кадры)                      : 0.272
Размер потока                            : 594 Мбайт (90%)
Библиотека кодирования                   : XviD 1.2.1 (UTC 2008-12-04)

Аудио
Идентификатор                            : 1
Формат                                   : MPEG Audio
Версия формата                           : Version 1
Профиль формата                          : Layer 3
Режим                                    : Joint stereo
Расширение режима                        : MS Stereo
Идентификатор кодека                     : 55
Идентификатор кодека/Подсказка           : MP3
Продолжительность                        : 44 м.
Вид битрейта                             : Переменный
Битрейт                                  : 192 Кбит/сек
Каналы                                   : 2 канала
Частота                                  : 48,0 КГц
Метод сжатия                             : С потерями
Размер потока                            : 59,3 Мбайт (9%)
Выравнивание                             : Соединение по промежуткам
Продолжительность промежутка             : 24  мс. (0,58 видеокадр)
Время предзагрузки промежутка            : 499  мс.
Библиотека кодирования                   : LAME3.97b
Настройки программы                      : -m j -V 4 -q 3 -lowpass 18.6 --abr 192

Общее
Полное имя                               : E:\Видео\Marvels.Agents.of.S.H.I.E.L.D. 1 - LostFilm.TV\Marvels.Agents.of.S.H.I.E.L.D.S01E02.rus.LostFilm.TV.avi
Формат                                   : AVI
Формат/Информация                        : Audio Video Interleave
Размер файла                             : 565 Мбайт
Продолжительность                        : 41 м.
Режим общего битрейта                    : Переменный
Общий поток                              : 1899 Кбит/сек
Программа кодирования                    : Nandub v1.0rc2
Библиотека кодирования                   : Nandub build 1853/release

Видео
Идентификатор                            : 0
Формат                                   : MPEG-4 Visual
Профиль формата                          : Simple@L3
Параметр BVOP формата                    : Нет
Параметр QPel формата                    : Нет
Параметр GMC формата                     : Без точки перехода
Параметр матрицы формата                 : Default (H.263)
Идентификатор кодека                     : XVID
Идентификатор кодека/Подсказка           : XviD
Продолжительность                        : 41 м.
Битрейт                                  : 1697 Кбит/сек
Ширина                                   : 720 пикселей
Высота                                   : 400 пикселей
Соотношение сторон                       : 16:9
Частота кадров                           : 23,976 кадра/сек
Цветовое пространство                    : YUV
Субдискретизация насыщенности            : 4:2:0
Битовая глубина                          : 8 бит
Тип развёртки                            : Прогрессивная
Метод сжатия                             : С потерями
Бит/(Пиксели*Кадры)                      : 0.246
Размер потока                            : 505 Мбайт (89%)
Библиотека кодирования                   : XviD 1.2.1 (UTC 2008-12-04)

Аудио
Идентификатор                            : 1
Формат                                   : MPEG Audio
Версия формата                           : Version 1
Профиль формата                          : Layer 3
Режим                                    : Joint stereo
Идентификатор кодека                     : 55
Идентификатор кодека/Подсказка           : MP3
Продолжительность                        : 41 м.
Вид битрейта                             : Переменный
Битрейт                                  : 192 Кбит/сек
Каналы                                   : 2 канала
Частота                                  : 48,0 КГц
Метод сжатия                             : С потерями
Размер потока                            : 56,1 Мбайт (10%)
Выравнивание                             : Соединение по промежуткам
Продолжительность промежутка             : 24  мс. (0,58 видеокадр)
Время предзагрузки промежутка            : 517  мс.
Библиотека кодирования                   : LAME3.97b
Настройки программы                      : -m j -V 4 -q 3 -lowpass 18.6 --abr 192

Общее
Полное имя                               : E:\Видео\Marvels.Agents.of.S.H.I.E.L.D. 1 - LostFilm.TV\Marvels.Agents.of.S.H.I.E.L.D.S01E03.rus.LostFilm.TV.avi
Формат                                   : AVI
Формат/Информация                        : Audio Video Interleave
Размер файла                             : 617 Мбайт
Продолжительность                        : 43 м.
Режим общего битрейта                    : Переменный
Общий поток                              : 1997 Кбит/сек
Программа кодирования                    : Nandub v1.0rc2
Библиотека кодирования                   : Nandub build 1853/release

Видео
Идентификатор                            : 0
Формат                                   : MPEG-4 Visual
Профиль формата                          : Simple@L3
Параметр BVOP формата                    : Нет
Параметр QPel формата                    : Нет
Параметр GMC формата                     : Без точки перехода
Параметр матрицы формата                 : Default (H.263)
Идентификатор кодека                     : XVID
Идентификатор кодека/Подсказка           : XviD
Продолжительность                        : 43 м.
Битрейт                                  : 1795 Кбит/сек
Ширина                                   : 720 пикселей
Высота                                   : 400 пикселей
Соотношение сторон                       : 16:9
Частота кадров                           : 23,976 кадра/сек
Цветовое пространство                    : YUV
Субдискретизация насыщенности            : 4:2:0
Битовая глубина                          : 8 бит
Тип развёртки                            : Прогрессивная
Метод сжатия                             : С потерями
Бит/(Пиксели*Кадры)                      : 0.260
Размер потока                            : 555 Мбайт (90%)
Библиотека кодирования                   : XviD 1.2.1 (UTC 2008-12-04)

Аудио
Идентификатор                            : 1
Формат                                   : MPEG Audio
Версия формата                           : Version 1
Профиль формата                          : Layer 3
Режим                                    : Joint stereo
Расширение режима                        : MS Stereo
Идентификатор кодека                     : 55
Идентификатор кодека/Подсказка           : MP3
Продолжительность                        : 43 м.
Вид битрейта                             : Переменный
Битрейт                                  : 192 Кбит/сек
Каналы                                   : 2 канала
Частота                                  : 48,0 КГц
Метод сжатия                             : С потерями
Размер потока                            : 58,6 Мбайт (9%)
Выравнивание                             : Соединение по промежуткам
Продолжительность промежутка             : 24  мс. (0,58 видеокадр)
Время предзагрузки промежутка            : 498  мс.
Библиотека кодирования                   : LAME3.97b
Настройки программы                      : -m j -V 4 -q 3 -lowpass 18.6 --abr 192

Общее
Полное имя                               : E:\Видео\Marvels.Agents.of.S.H.I.E.L.D. 1 - LostFilm.TV\Marvels.Agents.of.S.H.I.E.L.D.S01E04.rus.LostFilm.TV.avi
Формат                                   : AVI
Формат/Информация                        : Audio Video Interleave
Размер файла                             : 431 Мбайт
Продолжительность                        : 42 м.
Режим общего битрейта                    : Переменный
Общий поток                              : 1416 Кбит/сек
Программа кодирования                    : Nandub v1.0rc2
Библиотека кодирования                   : Nandub build 1853/release

Видео
Идентификатор                            : 0
Формат                                   : MPEG-4 Visual
Профиль формата                          : Simple@L3
Параметр BVOP формата                    : Нет
Параметр QPel формата                    : Нет
Параметр GMC формата                     : Без точки перехода
Параметр матрицы формата                 : Default (H.263)
Идентификатор кодека                     : XVID
Идентификатор кодека/Подсказка           : XviD
Продолжительность                        : 42 м.
Битрейт                                  : 1214 Кбит/сек
Ширина                                   : 720 пикселей
Высота                                   : 400 пикселей
Соотношение сторон                       : 16:9
Частота кадров                           : 23,976 кадра/сек
Цветовое пространство                    : YUV
Субдискретизация насыщенности            : 4:2:0
Битовая глубина                          : 8 бит
Тип развёртки                            : Прогрессивная
Метод сжатия                             : С потерями
Бит/(Пиксели*Кадры)                      : 0.176
Размер потока                            : 370 Мбайт (86%)
Библиотека кодирования                   : XviD 1.2.1 (UTC 2008-12-04)

Аудио
Идентификатор                            : 1
Формат                                   : MPEG Audio
Версия формата                           : Version 1
Профиль формата                          : Layer 3
Режим                                    : Joint stereo
Расширение режима                        : MS Stereo
Идентификатор кодека                     : 55
Идентификатор кодека/Подсказка           : MP3
Продолжительность                        : 42 м.
Вид битрейта                             : Переменный
Битрейт                                  : 192 Кбит/сек
Каналы                                   : 2 канала
Частота                                  : 48,0 КГц
Метод сжатия                             : С потерями
Размер потока                            : 57,5 Мбайт (13%)
Выравнивание                             : Соединение по промежуткам
Продолжительность промежутка             : 24  мс. (0,58 видеокадр)
Время предзагрузки промежутка            : 488  мс.
Библиотека кодирования                   : LAME3.97b
Настройки программы                      : -m j -V 4 -q 3 -lowpass 18.6 --abr 192

Общее
Полное имя                               : E:\Видео\Marvels.Agents.of.S.H.I.E.L.D. 1 - LostFilm.TV\Marvels.Agents.of.S.H.I.E.L.D.S01E05.rus.LostFilm.TV.avi
Формат                                   : AVI
Формат/Информация                        : Audio Video Interleave
Размер файла                             : 376 Мбайт
Продолжительность                        : 42 м.
Режим общего битрейта                    : Переменный
Общий поток                              : 1237 Кбит/сек
Программа кодирования                    : Nandub v1.0rc2
Библиотека кодирования                   : Nandub build 1853/release

Видео
Идентификатор                            : 0
Формат                                   : MPEG-4 Visual
Профиль формата                          : Simple@L3
Параметр BVOP формата                    : Нет
Параметр QPel формата                    : Нет
Параметр GMC формата                     : Без точки перехода
Параметр матрицы формата                 : Default (H.263)
Идентификатор кодека                     : XVID
Идентификатор кодека/Подсказка           : XviD
Продолжительность                        : 42 м.
Битрейт                                  : 1035 Кбит/сек
Ширина                                   : 720 пикселей
Высота                                   : 400 пикселей
Соотношение сторон                       : 16:9
Частота кадров                           : 23,976 кадра/сек
Цветовое пространство                    : YUV
Субдискретизация насыщенности            : 4:2:0
Битовая глубина                          : 8 бит
Тип развёртки                            : Прогрессивная
Метод сжатия                             : С потерями
Бит/(Пиксели*Кадры)                      : 0.150
Размер потока                            : 315 Мбайт (84%)
Библиотека кодирования                   : XviD 1.2.1 (UTC 2008-12-04)

Аудио
Идентификатор                            : 1
Формат                                   : MPEG Audio
Версия формата                           : Version 1
Профиль формата                          : Layer 3
Режим                                    : Joint stereo
Расширение режима                        : MS Stereo
Идентификатор кодека                     : 55
Идентификатор кодека/Подсказка           : MP3
Продолжительность                        : 42 м.
Вид битрейта                             : Переменный
Битрейт                                  : 192 Кбит/сек
Каналы                                   : 2 канала
Частота                                  : 48,0 КГц
Метод сжатия                             : С потерями
Размер потока                            : 57,4 Мбайт (15%)
Выравнивание                             : Соединение по промежуткам
Продолжительность промежутка             : 24  мс. (0,58 видеокадр)
Время предзагрузки промежутка            : 492  мс.
Библиотека кодирования                   : LAME3.97b
Настройки программы                      : -m j -V 4 -q 3 -lowpass 18.6 --abr 192

Общее
Полное имя                               : E:\Видео\Marvels.Agents.of.S.H.I.E.L.D. 1 - LostFilm.TV\Marvels.Agents.of.S.H.I.E.L.D.S01E06.rus.LostFilm.TV.avi
Формат                                   : AVI
Формат/Информация                        : Audio Video Interleave
Размер файла                             : 402 Мбайт
Продолжительность                        : 43 м.
Режим общего битрейта                    : Переменный
Общий поток                              : 1302 Кбит/сек
Программа кодирования                    : Nandub v1.0rc2
Библиотека кодирования                   : Nandub build 1853/release

Видео
Идентификатор                            : 0
Формат                                   : MPEG-4 Visual
Профиль формата                          : Simple@L3
Параметр BVOP формата                    : Нет
Параметр QPel формата                    : Нет
Параметр GMC формата                     : Без точки перехода
Параметр матрицы формата                 : Default (H.263)
Идентификатор кодека                     : XVID
Идентификатор кодека/Подсказка           : XviD
Продолжительность                        : 43 м.
Битрейт                                  : 1101 Кбит/сек
Ширина                                   : 720 пикселей
Высота                                   : 400 пикселей
Соотношение сторон                       : 16:9
Частота кадров                           : 23,976 кадра/сек
Цветовое пространство                    : YUV
Субдискретизация насыщенности            : 4:2:0
Битовая глубина                          : 8 бит
Тип развёртки                            : Прогрессивная
Метод сжатия                             : С потерями
Бит/(Пиксели*Кадры)                      : 0.159
Размер потока                            : 340 Мбайт (85%)
Библиотека кодирования                   : XviD 1.2.1 (UTC 2008-12-04)

Аудио
Идентификатор                            : 1
Формат                                   : MPEG Audio
Версия формата                           : Version 1
Профиль формата                          : Layer 3
Режим                                    : Joint stereo
Расширение режима                        : MS Stereo
Идентификатор кодека                     : 55
Идентификатор кодека/Подсказка           : MP3
Продолжительность                        : 43 м.
Вид битрейта                             : Переменный
Битрейт                                  : 192 Кбит/сек
Каналы                                   : 2 канала
Частота                                  : 48,0 КГц
Метод сжатия                             : С потерями
Размер потока                            : 58,1 Мбайт (14%)
Выравнивание                             : Соединение по промежуткам
Продолжительность промежутка             : 24  мс. (0,58 видеокадр)
Время предзагрузки промежутка            : 493  мс.
Библиотека кодирования                   : LAME3.97b
Настройки программы                      : -m j -V 4 -q 3 -lowpass 18.6 --abr 192

Общее
Полное имя                               : E:\Видео\Marvels.Agents.of.S.H.I.E.L.D. 1 - LostFilm.TV\Marvels.Agents.of.S.H.I.E.L.D.S01E07.rus.LostFilm.TV.avi
Формат                                   : AVI
Формат/Информация                        : Audio Video Interleave
Размер файла                             : 422 Мбайт
Продолжительность                        : 42 м.
Режим общего битрейта                    : Переменный
Общий поток                              : 1380 Кбит/сек
Программа кодирования                    : Nandub v1.0rc2
Библиотека кодирования                   : Nandub build 1853/release

Видео
Идентификатор                            : 0
Формат                                   : MPEG-4 Visual
Профиль формата                          : Simple@L3
Параметр BVOP формата                    : Нет
Параметр QPel формата                    : Нет
Параметр GMC формата                     : Без точки перехода
Параметр матрицы формата                 : Default (H.263)
Идентификатор кодека                     : XVID
Идентификатор кодека/Подсказка           : XviD
Продолжительность                        : 42 м.
Битрейт                                  : 1180 Кбит/сек
Ширина                                   : 720 пикселей
Высота                                   : 400 пикселей
Соотношение сторон                       : 16:9
Частота кадров                           : 23,976 кадра/сек
Цветовое пространство                    : YUV
Субдискретизация насыщенности            : 4:2:0
Битовая глубина                          : 8 бит
Тип развёртки                            : Прогрессивная
Метод сжатия                             : С потерями
Бит/(Пиксели*Кадры)                      : 0.171
Размер потока                            : 361 Мбайт (86%)
Библиотека кодирования                   : XviD 1.2.1 (UTC 2008-12-04)

Аудио
Идентификатор                            : 1
Формат                                   : MPEG Audio
Версия формата                           : Version 1
Профиль формата                          : Layer 3
Режим                                    : Joint stereo
Идентификатор кодека                     : 55
Идентификатор кодека/Подсказка           : MP3
Продолжительность                        : 42 м.
Вид битрейта                             : Переменный
Битрейт                                  : 192 Кбит/сек
Каналы                                   : 2 канала
Частота                                  : 48,0 КГц
Метод сжатия                             : С потерями
Размер потока                            : 57,2 Мбайт (14%)
Выравнивание                             : Соединение по промежуткам
Продолжительность промежутка             : 24  мс. (0,58 видеокадр)
Время предзагрузки промежутка            : 529  мс.
Библиотека кодирования                   : LAME3.97b
Настройки программы                      : -m j -V 4 -q 3 -lowpass 18.6 --abr 192

Общее
Полное имя                               : E:\Видео\Marvels.Agents.of.S.H.I.E.L.D. 1 - LostFilm.TV\Marvels.Agents.of.S.H.I.E.L.D.S01E08.rus.LostFilm.TV.avi
Формат                                   : AVI
Формат/Информация                        : Audio Video Interleave
Размер файла                             : 473 Мбайт
Продолжительность                        : 42 м.
Режим общего битрейта                    : Переменный
Общий поток                              : 1559 Кбит/сек
Программа кодирования                    : Nandub v1.0rc2
Библиотека кодирования                   : Nandub build 1853/release

Видео
Идентификатор                            : 0
Формат                                   : MPEG-4 Visual
Профиль формата                          : Simple@L3
Параметр BVOP формата                    : Нет
Параметр QPel формата                    : Нет
Параметр GMC формата                     : Без точки перехода
Параметр матрицы формата                 : Default (H.263)
Идентификатор кодека                     : XVID
Идентификатор кодека/Подсказка           : XviD
Продолжительность                        : 42 м.
Битрейт                                  : 1360 Кбит/сек
Ширина                                   : 720 пикселей
Высота                                   : 400 пикселей
Соотношение сторон                       : 16:9
Частота кадров                           : 23,976 кадра/сек
Цветовое пространство                    : YUV
Субдискретизация насыщенности            : 4:2:0
Битовая глубина                          : 8 бит
Тип развёртки                            : Прогрессивная
Метод сжатия                             : С потерями
Бит/(Пиксели*Кадры)                      : 0.197
Размер потока                            : 413 Мбайт (87%)
Библиотека кодирования                   : XviD 1.2.1 (UTC 2008-12-04)

Аудио
Идентификатор                            : 1
Формат                                   : MPEG Audio
Версия формата                           : Version 1
Профиль формата                          : Layer 3
Режим                                    : Joint stereo
Расширение режима                        : MS Stereo
Идентификатор кодека                     : 55
Идентификатор кодека/Подсказка           : MP3
Продолжительность                        : 42 м.
Вид битрейта                             : Переменный
Битрейт                                  : 192 Кбит/сек
Каналы                                   : 2 канала
Частота                                  : 48,0 КГц
Метод сжатия                             : С потерями
Размер потока                            : 56,6 Мбайт (12%)
Выравнивание                             : Соединение по промежуткам
Продолжительность промежутка             : 24  мс. (0,58 видеокадр)
Время предзагрузки промежутка            : 502  мс.
Библиотека кодирования                   : LAME3.97b
Настройки программы                      : -m j -V 4 -q 3 -lowpass 18.6 --abr 192

Общее
Полное имя                               : E:\Видео\Marvels.Agents.of.S.H.I.E.L.D. 1 - LostFilm.TV\Marvels.Agents.of.S.H.I.E.L.D.S01E09.rus.LostFilm.TV.avi
Формат                                   : AVI
Формат/Информация                        : Audio Video Interleave
Размер файла                             : 336 Мбайт
Продолжительность                        : 43 м.
Режим общего битрейта                    : Переменный
Общий поток                              : 1086 Кбит/сек
Программа кодирования                    : Nandub v1.0rc2
Библиотека кодирования                   : Nandub build 1853/release

Видео
Идентификатор                            : 0
Формат                                   : MPEG-4 Visual
Профиль формата                          : Simple@L3
Параметр BVOP формата                    : Нет
Параметр QPel формата                    : Нет
Параметр GMC формата                     : Без точки перехода
Параметр матрицы формата                 : Default (H.263)
Идентификатор кодека                     : XVID
Идентификатор кодека/Подсказка           : XviD
Продолжительность                        : 43 м.
Битрейт                                  : 886 Кбит/сек
Ширина                                   : 720 пикселей
Высота                                   : 400 пикселей
Соотношение сторон                       : 16:9
Частота кадров                           : 23,976 кадра/сек
Цветовое пространство                    : YUV
Субдискретизация насыщенности            : 4:2:0
Битовая глубина                          : 8 бит
Тип развёртки                            : Прогрессивная
Метод сжатия                             : С потерями
Бит/(Пиксели*Кадры)                      : 0.128
Размер потока                            : 274 Мбайт (82%)
Библиотека кодирования                   : XviD 1.2.1 (UTC 2008-12-04)

Аудио
Идентификатор                            : 1
Формат                                   : MPEG Audio
Версия формата                           : Version 1
Профиль формата                          : Layer 3
Режим                                    : Joint stereo
Идентификатор кодека                     : 55
Идентификатор кодека/Подсказка           : MP3
Продолжительность                        : 43 м.
Вид битрейта                             : Переменный
Битрейт                                  : 192 Кбит/сек
Каналы                                   : 2 канала
Частота                                  : 48,0 КГц
Метод сжатия                             : С потерями
Размер потока                            : 57,6 Мбайт (17%)
Выравнивание                             : Соединение по промежуткам
Продолжительность промежутка             : 24  мс. (0,58 видеокадр)
Время предзагрузки промежутка            : 535  мс.
Библиотека кодирования                   : LAME3.97b
Настройки программы                      : -m j -V 4 -q 3 -lowpass 18.6 --abr 192

Общее
Полное имя                               : E:\Видео\Marvels.Agents.of.S.H.I.E.L.D. 1 - LostFilm.TV\Marvels.Agents.of.S.H.I.E.L.D.S01E10.rus.LostFilm.TV.avi
Формат                                   : AVI
Формат/Информация                        : Audio Video Interleave
Размер файла                             : 441 Мбайт
Продолжительность                        : 41 м.
Режим общего битрейта                    : Переменный
Общий поток                              : 1476 Кбит/сек
Программа кодирования                    : Nandub v1.0rc2
Библиотека кодирования                   : Nandub build 1853/release

Видео
Идентификатор                            : 0
Формат                                   : MPEG-4 Visual
Профиль формата                          : Simple@L3
Параметр BVOP формата                    : Нет
Параметр QPel формата                    : Нет
Параметр GMC формата                     : Без точки перехода
Параметр матрицы формата                 : Default (H.263)
Идентификатор кодека                     : XVID
Идентификатор кодека/Подсказка           : XviD
Продолжительность                        : 41 м.
Битрейт                                  : 1277 Кбит/сек
Ширина                                   : 720 пикселей
Высота                                   : 400 пикселей
Соотношение сторон                       : 16:9
Частота кадров                           : 23,976 кадра/сек
Цветовое пространство                    : YUV
Субдискретизация насыщенности            : 4:2:0
Битовая глубина                          : 8 бит
Тип развёртки                            : Прогрессивная
Метод сжатия                             : С потерями
Бит/(Пиксели*Кадры)                      : 0.185
Размер потока                            : 382 Мбайт (86%)
Библиотека кодирования                   : XviD 1.2.1 (UTC 2008-12-04)

Аудио
Идентификатор                            : 1
Формат                                   : MPEG Audio
Версия формата                           : Version 1
Профиль формата                          : Layer 3
Режим                                    : Joint stereo
Расширение режима                        : MS Stereo
Идентификатор кодека                     : 55
Идентификатор кодека/Подсказка           : MP3
Продолжительность                        : 41 м.
Вид битрейта                             : Переменный
Битрейт                                  : 192 Кбит/сек
Каналы                                   : 2 канала
Частота                                  : 48,0 КГц
Метод сжатия                             : С потерями
Размер потока                            : 55,8 Мбайт (13%)
Выравнивание                             : Соединение по промежуткам
Продолжительность промежутка             : 24  мс. (0,58 видеокадр)
Время предзагрузки промежутка            : 497  мс.
Библиотека кодирования                   : LAME3.97b
Настройки программы                      : -m j -V 4 -q 3 -lowpass 18.6 --abr 192

Общее
Полное имя                               : E:\Видео\Marvels.Agents.of.S.H.I.E.L.D. 1 - LostFilm.TV\Marvels.Agents.of.S.H.I.E.L.D.S01E11.rus.LostFilm.TV.avi
Формат                                   : AVI
Формат/Информация                        : Audio Video Interleave
Размер файла                             : 474 Мбайт
Продолжительность                        : 42 м.
Режим общего битрейта                    : Переменный
Общий поток                              : 1548 Кбит/сек
Программа кодирования                    : Nandub v1.0rc2
Библиотека кодирования                   : Nandub build 1853/release

Видео
Идентификатор                            : 0
Формат                                   : MPEG-4 Visual
Профиль формата                          : Simple@L3
Параметр BVOP формата                    : Нет
Параметр QPel формата                    : Нет
Параметр GMC формата                     : Без точки перехода
Параметр матрицы формата                 : Default (H.263)
Идентификатор кодека                     : XVID
Идентификатор кодека/Подсказка           : XviD
Продолжительность                        : 42 м.
Битрейт                                  : 1348 Кбит/сек
Ширина                                   : 720 пикселей
Высота                                   : 400 пикселей
Соотношение сторон                       : 16:9
Частота кадров                           : 23,976 кадра/сек
Цветовое пространство                    : YUV
Субдискретизация насыщенности            : 4:2:0
Битовая глубина                          : 8 бит
Тип развёртки                            : Прогрессивная
Метод сжатия                             : С потерями
Бит/(Пиксели*Кадры)                      : 0.195
Размер потока                            : 413 Мбайт (87%)
Библиотека кодирования                   : XviD 1.2.1 (UTC 2008-12-04)

Аудио
Идентификатор                            : 1
Формат                                   : MPEG Audio
Версия формата                           : Version 1
Профиль формата                          : Layer 3
Режим                                    : Joint stereo
Расширение режима                        : MS Stereo
Идентификатор кодека                     : 55
Идентификатор кодека/Подсказка           : MP3
Продолжительность                        : 42 м.
Вид битрейта                             : Переменный
Битрейт                                  : 192 Кбит/сек
Каналы                                   : 2 канала
Частота                                  : 48,0 КГц
Метод сжатия                             : С потерями
Размер потока                            : 57,2 Мбайт (12%)
Выравнивание                             : Соединение по промежуткам
Продолжительность промежутка             : 24  мс. (0,58 видеокадр)
Время предзагрузки промежутка            : 518  мс.
Библиотека кодирования                   : LAME3.97b
Настройки программы                      : -m j -V 4 -q 3 -lowpass 18.6 --abr 192

Общее
Полное имя                               : E:\Видео\Marvels.Agents.of.S.H.I.E.L.D. 1 - LostFilm.TV\Marvels.Agents.of.S.H.I.E.L.D.S01E12.rus.LostFilm.TV.avi
Формат                                   : AVI
Формат/Информация                        : Audio Video Interleave
Размер файла                             : 447 Мбайт
Продолжительность                        : 43 м.
Режим общего битрейта                    : Переменный
Общий поток                              : 1445 Кбит/сек
Программа кодирования                    : Nandub v1.0rc2
Библиотека кодирования                   : Nandub build 1853/release

Видео
Идентификатор                            : 0
Формат                                   : MPEG-4 Visual
Профиль формата                          : Simple@L3
Параметр BVOP формата                    : Нет
Параметр QPel формата                    : Нет
Параметр GMC формата                     : Без точки перехода
Параметр матрицы формата                 : Default (H.263)
Идентификатор кодека                     : XVID
Идентификатор кодека/Подсказка           : XviD
Продолжительность                        : 43 м.
Битрейт                                  : 1245 Кбит/сек
Ширина                                   : 720 пикселей
Высота                                   : 400 пикселей
Соотношение сторон                       : 16:9
Частота кадров                           : 23,976 кадра/сек
Цветовое пространство                    : YUV
Субдискретизация насыщенности            : 4:2:0
Битовая глубина                          : 8 бит
Тип развёртки                            : Прогрессивная
Метод сжатия                             : С потерями
Бит/(Пиксели*Кадры)                      : 0.180
Размер потока                            : 385 Мбайт (86%)
Библиотека кодирования                   : XviD 1.2.1 (UTC 2008-12-04)

Аудио
Идентификатор                            : 1
Формат                                   : MPEG Audio
Версия формата                           : Version 1
Профиль формата                          : Layer 3
Режим                                    : Joint stereo
Расширение режима                        : MS Stereo
Идентификатор кодека                     : 55
Идентификатор кодека/Подсказка           : MP3
Продолжительность                        : 43 м.
Вид битрейта                             : Переменный
Битрейт                                  : 192 Кбит/сек
Каналы                                   : 2 канала
Частота                                  : 48,0 КГц
Метод сжатия                             : С потерями
Размер потока                            : 58,1 Мбайт (13%)
Выравнивание                             : Соединение по промежуткам
Продолжительность промежутка             : 24  мс. (0,58 видеокадр)
Время предзагрузки промежутка            : 510  мс.
Библиотека кодирования                   : LAME3.97b
Настройки программы                      : -m j -V 4 -q 3 -lowpass 18.6 --abr 192

Общее
Полное имя                               : E:\Видео\Marvels.Agents.of.S.H.I.E.L.D. 1 - LostFilm.TV\Marvels.Agents.of.S.H.I.E.L.D.S01E13.rus.LostFilm.TV.avi
Формат                                   : AVI
Формат/Информация                        : Audio Video Interleave
Размер файла                             : 558 Мбайт
Продолжительность                        : 42 м.
Режим общего битрейта                    : Переменный
Общий поток                              : 1825 Кбит/сек
Программа кодирования                    : Nandub v1.0rc2
Библиотека кодирования                   : Nandub build 1853/release

Видео
Идентификатор                            : 0
Формат                                   : MPEG-4 Visual
Профиль формата                          : Simple@L3
Параметр BVOP формата                    : Нет
Параметр QPel формата                    : Нет
Параметр GMC формата                     : Без точки перехода
Параметр матрицы формата                 : Default (H.263)
Идентификатор кодека                     : XVID
Идентификатор кодека/Подсказка           : XviD
Продолжительность                        : 42 м.
Битрейт                                  : 1624 Кбит/сек
Ширина                                   : 720 пикселей
Высота                                   : 400 пикселей
Соотношение сторон                       : 16:9
Частота кадров                           : 23,976 кадра/сек
Цветовое пространство                    : YUV
Субдискретизация насыщенности            : 4:2:0
Битовая глубина                          : 8 бит
Тип развёртки                            : Прогрессивная
Метод сжатия                             : С потерями
Бит/(Пиксели*Кадры)                      : 0.235
Размер потока                            : 497 Мбайт (89%)
Библиотека кодирования                   : XviD 1.2.1 (UTC 2008-12-04)

Аудио
Идентификатор                            : 1
Формат                                   : MPEG Audio
Версия формата                           : Version 1
Профиль формата                          : Layer 3
Режим                                    : Joint stereo
Расширение режима                        : MS Stereo
Идентификатор кодека                     : 55
Идентификатор кодека/Подсказка           : MP3
Продолжительность                        : 42 м.
Вид битрейта                             : Переменный
Битрейт                                  : 192 Кбит/сек
Каналы                                   : 2 канала
Частота                                  : 48,0 КГц
Метод сжатия                             : С потерями
Размер потока                            : 57,4 Мбайт (10%)
Выравнивание                             : Соединение по промежуткам
Продолжительность промежутка             : 24  мс. (0,58 видеокадр)
Время предзагрузки промежутка            : 495  мс.
Библиотека кодирования                   : LAME3.97b
Настройки программы                      : -m j -V 4 -q 3 -lowpass 18.6 --abr 192

Общее
Полное имя                               : E:\Видео\Marvels.Agents.of.S.H.I.E.L.D. 1 - LostFilm.TV\Marvels.Agents.of.S.H.I.E.L.D.S01E14.rus.LostFilm.TV.avi
Формат                                   : AVI
Формат/Информация                        : Audio Video Interleave
Размер файла                             : 368 Мбайт
Продолжительность                        : 42 м.
Режим общего битрейта                    : Переменный
Общий поток                              : 1202 Кбит/сек
Программа кодирования                    : Nandub v1.0rc2
Библиотека кодирования                   : Nandub build 1853/release

Видео
Идентификатор                            : 0
Формат                                   : MPEG-4 Visual
Профиль формата                          : Simple@L3
Параметр BVOP формата                    : Нет
Параметр QPel формата                    : Нет
Параметр GMC формата                     : Без точки перехода
Параметр матрицы формата                 : Default (H.263)
Идентификатор кодека                     : XVID
Идентификатор кодека/Подсказка           : XviD
Продолжительность                        : 42 м.
Битрейт                                  : 1002 Кбит/сек
Ширина                                   : 720 пикселей
Высота                                   : 400 пикселей
Соотношение сторон                       : 16:9
Частота кадров                           : 23,976 кадра/сек
Цветовое пространство                    : YUV
Субдискретизация насыщенности            : 4:2:0
Битовая глубина                          : 8 бит
Тип развёртки                            : Прогрессивная
Метод сжатия                             : С потерями
Бит/(Пиксели*Кадры)                      : 0.145
Размер потока                            : 307 Мбайт (83%)
Библиотека кодирования                   : XviD 1.2.1 (UTC 2008-12-04)

Аудио
Идентификатор                            : 1
Формат                                   : MPEG Audio
Версия формата                           : Version 1
Профиль формата                          : Layer 3
Режим                                    : Joint stereo
Идентификатор кодека                     : 55
Идентификатор кодека/Подсказка           : MP3
Продолжительность                        : 42 м.
Вид битрейта                             : Переменный
Битрейт                                  : 192 Кбит/сек
Каналы                                   : 2 канала
Частота                                  : 48,0 КГц
Метод сжатия                             : С потерями
Размер потока                            : 57,1 Мбайт (16%)
Выравнивание                             : Соединение по промежуткам
Продолжительность промежутка             : 24  мс. (0,58 видеокадр)
Время предзагрузки промежутка            : 543  мс.
Библиотека кодирования                   : LAME3.97b
Настройки программы                      : -m j -V 4 -q 3 -lowpass 18.6 --abr 192

Общее
Полное имя                               : E:\Видео\Marvels.Agents.of.S.H.I.E.L.D. 1 - LostFilm.TV\Marvels.Agents.of.S.H.I.E.L.D.S01E15.rus.LostFilm.TV.avi
Формат                                   : AVI
Формат/Информация                        : Audio Video Interleave
Размер файла                             : 416 Мбайт
Продолжительность                        : 43 м.
Режим общего битрейта                    : Переменный
Общий поток                              : 1346 Кбит/сек
Программа кодирования                    : Nandub v1.0rc2
Библиотека кодирования                   : Nandub build 1853/release

Видео
Идентификатор                            : 0
Формат                                   : MPEG-4 Visual
Профиль формата                          : Simple@L3
Параметр BVOP формата                    : Нет
Параметр QPel формата                    : Нет
Параметр GMC формата                     : Без точки перехода
Параметр матрицы формата                 : Default (H.263)
Идентификатор кодека                     : XVID
Идентификатор кодека/Подсказка           : XviD
Продолжительность                        : 43 м.
Битрейт                                  : 1146 Кбит/сек
Ширина                                   : 720 пикселей
Высота                                   : 400 пикселей
Соотношение сторон                       : 16:9
Частота кадров                           : 23,976 кадра/сек
Цветовое пространство                    : YUV
Субдискретизация насыщенности            : 4:2:0
Битовая глубина                          : 8 бит
Тип развёртки                            : Прогрессивная
Метод сжатия                             : С потерями
Бит/(Пиксели*Кадры)                      : 0.166
Размер потока                            : 354 Мбайт (85%)
Библиотека кодирования                   : XviD 1.2.1 (UTC 2008-12-04)

Аудио
Идентификатор                            : 1
Формат                                   : MPEG Audio
Версия формата                           : Version 1
Профиль формата                          : Layer 3
Режим                                    : Joint stereo
Расширение режима                        : MS Stereo
Идентификатор кодека                     : 55
Идентификатор кодека/Подсказка           : MP3
Продолжительность                        : 43 м.
Вид битрейта                             : Переменный
Битрейт                                  : 192 Кбит/сек
Каналы                                   : 2 канала
Частота                                  : 48,0 КГц
Метод сжатия                             : С потерями
Размер потока                            : 57,9 Мбайт (14%)
Выравнивание                             : Соединение по промежуткам
Продолжительность промежутка             : 24  мс. (0,58 видеокадр)
Время предзагрузки промежутка            : 495  мс.
Библиотека кодирования                   : LAME3.97b
Настройки программы                      : -m j -V 4 -q 3 -lowpass 18.6 --abr 192

Общее
Полное имя                               : E:\Видео\Marvels.Agents.of.S.H.I.E.L.D. 1 - LostFilm.TV\Marvels.Agents.of.S.H.I.E.L.D.S01E16.rus.LostFilm.TV.avi
Формат                                   : AVI
Формат/Информация                        : Audio Video Interleave
Размер файла                             : 328 Мбайт
Продолжительность                        : 41 м.
Режим общего битрейта                    : Переменный
Общий поток                              : 1108 Кбит/сек
Программа кодирования                    : Nandub v1.0rc2
Библиотека кодирования                   : Nandub build 1853/release

Видео
Идентификатор                            : 0
Формат                                   : MPEG-4 Visual
Профиль формата                          : Simple@L3
Параметр BVOP формата                    : Нет
Параметр QPel формата                    : Нет
Параметр GMC формата                     : Без точки перехода
Параметр матрицы формата                 : Default (H.263)
Идентификатор кодека                     : XVID
Идентификатор кодека/Подсказка           : XviD
Продолжительность                        : 41 м.
Битрейт                                  : 909 Кбит/сек
Ширина                                   : 720 пикселей
Высота                                   : 400 пикселей
Соотношение сторон                       : 16:9
Частота кадров                           : 23,976 кадра/сек
Цветовое пространство                    : YUV
Субдискретизация насыщенности            : 4:2:0
Битовая глубина                          : 8 бит
Тип развёртки                            : Прогрессивная
Метод сжатия                             : С потерями
Бит/(Пиксели*Кадры)                      : 0.132
Размер потока                            : 269 Мбайт (82%)
Библиотека кодирования                   : XviD 1.2.1 (UTC 2008-12-04)

Аудио
Идентификатор                            : 1
Формат                                   : MPEG Audio
Версия формата                           : Version 1
Профиль формата                          : Layer 3
Режим                                    : Joint stereo
Расширение режима                        : MS Stereo
Идентификатор кодека                     : 55
Идентификатор кодека/Подсказка           : MP3
Продолжительность                        : 41 м.
Вид битрейта                             : Переменный
Битрейт                                  : 192 Кбит/сек
Каналы                                   : 2 канала
Частота                                  : 48,0 КГц
Метод сжатия                             : С потерями
Размер потока                            : 55,4 Мбайт (17%)
Выравнивание                             : Соединение по промежуткам
Продолжительность промежутка             : 24  мс. (0,58 видеокадр)
Время предзагрузки промежутка            : 505  мс.
Библиотека кодирования                   : LAME3.97b
Настройки программы                      : -m j -V 4 -q 3 -lowpass 18.6 --abr 192

Общее
Полное имя                               : E:\Видео\Marvels.Agents.of.S.H.I.E.L.D. 1 - LostFilm.TV\Marvels.Agents.of.S.H.I.E.L.D.S01E17.rus.LostFilm.TV.avi
Формат                                   : AVI
Формат/Информация                        : Audio Video Interleave
Размер файла                             : 302 Мбайт
Продолжительность                        : 43 м.
Режим общего битрейта                    : Переменный
Общий поток                              : 975 Кбит/сек
Программа кодирования                    : Nandub v1.0rc2
Библиотека кодирования                   : Nandub build 1853/release

Видео
Идентификатор                            : 0
Формат                                   : MPEG-4 Visual
Профиль формата                          : Simple@L3
Параметр BVOP формата                    : Нет
Параметр QPel формата                    : Нет
Параметр GMC формата                     : Без точки перехода
Параметр матрицы формата                 : Default (H.263)
Идентификатор кодека                     : XVID
Идентификатор кодека/Подсказка           : XviD
Продолжительность                        : 43 м.
Битрейт                                  : 776 Кбит/сек
Ширина                                   : 720 пикселей
Высота                                   : 400 пикселей
Соотношение сторон                       : 16:9
Частота кадров                           : 23,976 кадра/сек
Цветовое пространство                    : YUV
Субдискретизация насыщенности            : 4:2:0
Битовая глубина                          : 8 бит
Тип развёртки                            : Прогрессивная
Метод сжатия                             : С потерями
Бит/(Пиксели*Кадры)                      : 0.112
Размер потока                            : 240 Мбайт (80%)
Библиотека кодирования                   : XviD 1.2.1 (UTC 2008-12-04)

Аудио
Идентификатор                            : 1
Формат                                   : MPEG Audio
Версия формата                           : Version 1
Профиль формата                          : Layer 3
Режим                                    : Joint stereo
Идентификатор кодека                     : 55
Идентификатор кодека/Подсказка           : MP3
Продолжительность                        : 43 м.
Вид битрейта                             : Переменный
Битрейт                                  : 192 Кбит/сек
Каналы                                   : 2 канала
Частота                                  : 48,0 КГц
Метод сжатия                             : С потерями
Размер потока                            : 57,7 Мбайт (19%)
Выравнивание                             : Соединение по промежуткам
Продолжительность промежутка             : 24  мс. (0,58 видеокадр)
Время предзагрузки промежутка            : 539  мс.
Библиотека кодирования                   : LAME3.97b
Настройки программы                      : -m j -V 4 -q 3 -lowpass 18.6 --abr 192

Общее
Полное имя                               : E:\Видео\Marvels.Agents.of.S.H.I.E.L.D. 1 - LostFilm.TV\Marvels.Agents.of.S.H.I.E.L.D.S01E18.rus.LostFilm.TV.avi
Формат                                   : AVI
Формат/Информация                        : Audio Video Interleave
Размер файла                             : 461 Мбайт
Продолжительность                        : 43 м.
Режим общего битрейта                    : Переменный
Общий поток                              : 1490 Кбит/сек
Программа кодирования                    : Nandub v1.0rc2
Библиотека кодирования                   : Nandub build 1853/release

Видео
Идентификатор                            : 0
Формат                                   : MPEG-4 Visual
Профиль формата                          : Simple@L3
Параметр BVOP формата                    : Нет
Параметр QPel формата                    : Нет
Параметр GMC формата                     : Без точки перехода
Параметр матрицы формата                 : Default (H.263)
Идентификатор кодека                     : XVID
Идентификатор кодека/Подсказка           : XviD
Продолжительность                        : 43 м.
Битрейт                                  : 1291 Кбит/сек
Ширина                                   : 720 пикселей
Высота                                   : 400 пикселей
Соотношение сторон                       : 16:9
Частота кадров                           : 23,976 кадра/сек
Цветовое пространство                    : YUV
Субдискретизация насыщенности            : 4:2:0
Битовая глубина                          : 8 бит
Тип развёртки                            : Прогрессивная
Метод сжатия                             : С потерями
Бит/(Пиксели*Кадры)                      : 0.187
Размер потока                            : 399 Мбайт (87%)
Библиотека кодирования                   : XviD 1.2.1 (UTC 2008-12-04)

Аудио
Идентификатор                            : 1
Формат                                   : MPEG Audio
Версия формата                           : Version 1
Профиль формата                          : Layer 3
Режим                                    : Joint stereo
Расширение режима                        : MS Stereo
Идентификатор кодека                     : 55
Идентификатор кодека/Подсказка           : MP3
Продолжительность                        : 43 м.
Вид битрейта                             : Переменный
Битрейт                                  : 192 Кбит/сек
Каналы                                   : 2 канала
Частота                                  : 48,0 КГц
Метод сжатия                             : С потерями
Размер потока                            : 57,7 Мбайт (13%)
Выравнивание                             : Соединение по промежуткам
Продолжительность промежутка             : 24  мс. (0,58 видеокадр)
Время предзагрузки промежутка            : 510  мс.
Библиотека кодирования                   : LAME3.97b
Настройки программы                      : -m j -V 4 -q 3 -lowpass 18.6 --abr 192

Общее
Полное имя                               : E:\Видео\Marvels.Agents.of.S.H.I.E.L.D. 1 - LostFilm.TV\Marvels.Agents.of.S.H.I.E.L.D.S01E19.rus.LostFilm.TV.avi
Формат                                   : AVI
Формат/Информация                        : Audio Video Interleave
Размер файла                             : 304 Мбайт
Продолжительность                        : 43 м.
Режим общего битрейта                    : Переменный
Общий поток                              : 982 Кбит/сек
Программа кодирования                    : Nandub v1.0rc2
Библиотека кодирования                   : Nandub build 1853/release

Видео
Идентификатор                            : 0
Формат                                   : MPEG-4 Visual
Профиль формата                          : Simple@L3
Параметр BVOP формата                    : Нет
Параметр QPel формата                    : Нет
Параметр GMC формата                     : Без точки перехода
Параметр матрицы формата                 : Default (H.263)
Идентификатор кодека                     : XVID
Идентификатор кодека/Подсказка           : XviD
Продолжительность                        : 43 м.
Битрейт                                  : 783 Кбит/сек
Ширина                                   : 720 пикселей
Высота                                   : 400 пикселей
Соотношение сторон                       : 16:9
Частота кадров                           : 23,976 кадра/сек
Цветовое пространство                    : YUV
Субдискретизация насыщенности            : 4:2:0
Битовая глубина                          : 8 бит
Тип развёртки                            : Прогрессивная
Метод сжатия                             : С потерями
Бит/(Пиксели*Кадры)                      : 0.113
Размер потока                            : 242 Мбайт (80%)
Библиотека кодирования                   : XviD 1.2.1 (UTC 2008-12-04)

Аудио
Идентификатор                            : 1
Формат                                   : MPEG Audio
Версия формата                           : Version 1
Профиль формата                          : Layer 3
Режим                                    : Joint stereo
Идентификатор кодека                     : 55
Идентификатор кодека/Подсказка           : MP3
Продолжительность                        : 43 м.
Вид битрейта                             : Переменный
Битрейт                                  : 192 Кбит/сек
Каналы                                   : 2 канала
Частота                                  : 48,0 КГц
Метод сжатия                             : С потерями
Размер потока                            : 57,6 Мбайт (19%)
Выравнивание                             : Соединение по промежуткам
Продолжительность промежутка             : 24  мс. (0,58 видеокадр)
Время предзагрузки промежутка            : 535  мс.
Библиотека кодирования                   : LAME3.97b
Настройки программы                      : -m j -V 4 -q 3 -lowpass 18.6 --abr 192

Общее
Полное имя                               : E:\Видео\Marvels.Agents.of.S.H.I.E.L.D. 1 - LostFilm.TV\Marvels.Agents.of.S.H.I.E.L.D.S01E20.rus.LostFilm.TV.avi
Формат                                   : AVI
Формат/Информация                        : Audio Video Interleave
Размер файла                             : 399 Мбайт
Продолжительность                        : 43 м.
Режим общего битрейта                    : Переменный
Общий поток                              : 1290 Кбит/сек
Программа кодирования                    : Nandub v1.0rc2
Библиотека кодирования                   : Nandub build 1853/release

Видео
Идентификатор                            : 0
Формат                                   : MPEG-4 Visual
Профиль формата                          : Simple@L3
Параметр BVOP формата                    : Нет
Параметр QPel формата                    : Нет
Параметр GMC формата                     : Без точки перехода
Параметр матрицы формата                 : Default (H.263)
Идентификатор кодека                     : XVID
Идентификатор кодека/Подсказка           : XviD
Продолжительность                        : 43 м.
Битрейт                                  : 1090 Кбит/сек
Ширина                                   : 720 пикселей
Высота                                   : 400 пикселей
Соотношение сторон                       : 16:9
Частота кадров                           : 23,976 кадра/сек
Цветовое пространство                    : YUV
Субдискретизация насыщенности            : 4:2:0
Битовая глубина                          : 8 бит
Тип развёртки                            : Прогрессивная
Метод сжатия                             : С потерями
Бит/(Пиксели*Кадры)                      : 0.158
Размер потока                            : 337 Мбайт (85%)
Библиотека кодирования                   : XviD 1.2.1 (UTC 2008-12-04)

Аудио
Идентификатор                            : 1
Формат                                   : MPEG Audio
Версия формата                           : Version 1
Профиль формата                          : Layer 3
Режим                                    : Joint stereo
Идентификатор кодека                     : 55
Идентификатор кодека/Подсказка           : MP3
Продолжительность                        : 43 м.
Вид битрейта                             : Переменный
Битрейт                                  : 192 Кбит/сек
Каналы                                   : 2 канала
Частота                                  : 48,0 КГц
Метод сжатия                             : С потерями
Размер потока                            : 57,8 Мбайт (15%)
Выравнивание                             : Соединение по промежуткам
Продолжительность промежутка             : 24  мс. (0,58 видеокадр)
Время предзагрузки промежутка            : 537  мс.
Библиотека кодирования                   : LAME3.97b
Настройки программы                      : -m j -V 4 -q 3 -lowpass 18.6 --abr 192

Общее
Полное имя                               : E:\Видео\Marvels.Agents.of.S.H.I.E.L.D. 1 - LostFilm.TV\Marvels.Agents.of.S.H.I.E.L.D.S01E21.rus.LostFilm.TV.avi
Формат                                   : AVI
Формат/Информация                        : Audio Video Interleave
Размер файла                             : 448 Мбайт
Продолжительность                        : 43 м.
Режим общего битрейта                    : Переменный
Общий поток                              : 1452 Кбит/сек
Программа кодирования                    : Nandub v1.0rc2
Библиотека кодирования                   : Nandub build 1853/release

Видео
Идентификатор                            : 0
Формат                                   : MPEG-4 Visual
Профиль формата                          : Simple@L3
Параметр BVOP формата                    : Нет
Параметр QPel формата                    : Нет
Параметр GMC формата                     : Без точки перехода
Параметр матрицы формата                 : Default (H.263)
Идентификатор кодека                     : XVID
Идентификатор кодека/Подсказка           : XviD
Продолжительность                        : 43 м.
Битрейт                                  : 1252 Кбит/сек
Ширина                                   : 720 пикселей
Высота                                   : 400 пикселей
Соотношение сторон                       : 16:9
Частота кадров                           : 23,976 кадра/сек
Цветовое пространство                    : YUV
Субдискретизация насыщенности            : 4:2:0
Битовая глубина                          : 8 бит
Тип развёртки                            : Прогрессивная
Метод сжатия                             : С потерями
Бит/(Пиксели*Кадры)                      : 0.181
Размер потока                            : 386 Мбайт (86%)
Библиотека кодирования                   : XviD 1.2.1 (UTC 2008-12-04)

Аудио
Идентификатор                            : 1
Формат                                   : MPEG Audio
Версия формата                           : Version 1
Профиль формата                          : Layer 3
Режим                                    : Joint stereo
Расширение режима                        : MS Stereo
Идентификатор кодека                     : 55
Идентификатор кодека/Подсказка           : MP3
Продолжительность                        : 43 м.
Вид битрейта                             : Переменный
Битрейт                                  : 192 Кбит/сек
Каналы                                   : 2 канала
Частота                                  : 48,0 КГц
Метод сжатия                             : С потерями
Размер потока                            : 57,5 Мбайт (13%)
Выравнивание                             : Соединение по промежуткам
Продолжительность промежутка             : 24  мс. (0,58 видеокадр)
Время предзагрузки промежутка            : 514  мс.
Библиотека кодирования                   : LAME3.97b
Настройки программы                      : -m j -V 4 -q 3 -lowpass 18.6 --abr 192

Общее
Полное имя                               : E:\Видео\Marvels.Agents.of.S.H.I.E.L.D. 1 - LostFilm.TV\Marvels.Agents.of.S.H.I.E.L.D.S01E22.rus.LostFilm.TV.avi
Формат                                   : AVI
Формат/Информация                        : Audio Video Interleave
Размер файла                             : 385 Мбайт
Продолжительность                        : 43 м.
Режим общего битрейта                    : Переменный
Общий поток                              : 1248 Кбит/сек
Программа кодирования                    : Nandub v1.0rc2
Библиотека кодирования                   : Nandub build 1853/release

Видео
Идентификатор                            : 0
Формат                                   : MPEG-4 Visual
Профиль формата                          : Simple@L3
Параметр BVOP формата                    : Нет
Параметр QPel формата                    : Нет
Параметр GMC формата                     : Без точки перехода
Параметр матрицы формата                 : Default (H.263)
Идентификатор кодека                     : XVID
Идентификатор кодека/Подсказка           : XviD
Продолжительность                        : 43 м.
Битрейт                                  : 1048 Кбит/сек
Ширина                                   : 720 пикселей
Высота                                   : 400 пикселей
Соотношение сторон                       : 16:9
Частота кадров                           : 23,976 кадра/сек
Цветовое пространство                    : YUV
Субдискретизация насыщенности            : 4:2:0
Битовая глубина                          : 8 бит
Тип развёртки                            : Прогрессивная
Метод сжатия                             : С потерями
Бит/(Пиксели*Кадры)                      : 0.152
Размер потока                            : 324 Мбайт (84%)
Библиотека кодирования                   : XviD 1.2.1 (UTC 2008-12-04)

Аудио
Идентификатор                            : 1
Формат                                   : MPEG Audio
Версия формата                           : Version 1
Профиль формата                          : Layer 3
Режим                                    : Joint stereo
Идентификатор кодека                     : 55
Идентификатор кодека/Подсказка           : MP3
Продолжительность                        : 43 м.
Вид битрейта                             : Переменный
Битрейт                                  : 192 Кбит/сек
Каналы                                   : 2 канала
Частота                                  : 48,0 КГц
Метод сжатия                             : С потерями
Размер потока                            : 57,8 Мбайт (15%)
Выравнивание                             : Соединение по промежуткам
Продолжительность промежутка             : 24  мс. (0,58 видеокадр)
Время предзагрузки промежутка            : 512  мс.
Библиотека кодирования                   : LAME3.97b
Настройки программы                      : -m j -V 4 -q 3 -lowpass 18.6 --abr 192

Релиз группы:

Код:

1   «Pilot»
«Пилотный эпизод»   Джосс Уидон   Джосс Уидон, Джед Уидон и Маурисса Тэнчероен   24 сентября 2013   12,12[31]
Агент Фил Колсон набирает группу для борьбы с преступной организацией «Rising Tide», одновременно сталкиваясь с новой угрозой, когда в Нью-Йорке начинают появляться сверхлюди, подопытные проекта «Сороконожка» (или «Многоножка»). «Щ.И.Т.» выходит на след эксцентричного борца за свободу информации Скай, которая соглашается вступить в ряды организации и в команду Колсона.
2   «0-8-4»
«0-8-4»   Дэвид Стрейтэн   Маурисса Тэнчероен, Джед Уидон и Джеффри Белл   1 октября 2013   8,66[32]
Колсон и его команда отправляются в Перу, чтобы исследовать некое устройство инопланетного происхождения, имеющее связь с Тессерактом. Между тем, новичок в команде, хакерша Скай, на самом деле является также агентом «Rising Tide».
3   «The Asset»
«Актив»   Милан Чейлов   Маурисса Тэнчероен и Джед Уидон   8 октября 2013   7,87[33]
«Щ.И.Т.» отправляется на поиски одного из своих активов, доктора Франклина Холла, который был похищен его бывшим партнёром по исследованиям Иеном Куинном. Он хочет использовать Холла, чтобы взять под контроль гравитацию планеты. Скай предстоит проникнуть прямиком в особняк Куинна, чтобы команда Колсона могла спасти Холла.
4   «Eye-Spy»
«Шпион»   Роксан Доусон   Джеффри Белл   15 октября 2013   7,85[34]
Команда расследует профессиональную кражу бриллиантов и находит вора: им оказывается Акелла Амадор, бывший агент «Щ.И.Т.а.» Вскоре выясняется, что Акелла на самом деле лишь «оружие» в руках некой преступной организации, в том числе промышляющей похищением важной информации.
5   «Girl in the Flower Dress»
«Девушка в цветочном платье»   Джесс Боччо   Брент Флетчер   22 октября 2013   7,39[35]
Работница проекта «Сороконожка» Рэйна (девушка в цветочном платье) выслеживает сверхчеловека, способного создавать огонь, и предлагает ему расширить свою силу и стать новым супергероем, Ожогом. «Щ.И.Т.» начинает разыскивать мутанта, также пытаясь ближе подобраться к проекту, создающему «супергероев». Тем временем выясняются реальные мотивы присутствия Скай в организации и группе Колсона: сбор любой информации по некогда пропавшим родителям хакерши.
6   «FZZT»
«ФЗЗТ»   Винсент Мисиано   Пол Збусжевски   5 ноября 2013   7,15[36]
После битвы за Нью-Йорк (события фильма «Мстители») на Земле остался шлем побеждённой супергероями расы Читаури. Именно его и находят пожарные, которым от него передаётся вирус, уничтожающий людей изнутри. В ходе расследования происшествий, связанных со шлемом, носителем вируса становится один из людей Колсона. Теперь группе предстоит быстро найти лекарство.
7   «The Hub»
«Штаб»   Бобби Рот   Рэйф Джадкинс и Лорен ЛеФранк   12 ноября 2013   6,67[37]
Команда отправляется в так называемый «Штаб» «Щ.И.Т.а», где Уорд и Фитц получают новое задание восьмого уровня, к которому из-за секретности не допускают Скай. Заручившись помощью Симмонс, девушка пытается выяснить все секреты миссии, попутно разыскивая информацию по своим родителям.
8   «The Well»
«Колодец»   Джонатан Фрейкс   Моника Овусу-Брин   19 ноября 2013   6,89[38]
Эпизод, являющийся привязкой к ​​фильму «Тор 2: Царство тьмы», где команда наводит порядок после событий фильма, а также ищет Асгардский скипетр Берсерков, оставленный на Земле.
9   «Repairs»
«Восстановление»   Билли Герфант   Маурисса Тэнчероен и Джед Уидон   26 ноября 2013   9,69[39]
«Щ.И.Т.» выслеживает Ханну Хатчинс, женщину, которая обвиняется в провоцировании нескольких взрывов в результате несдержанной силы телекинеза, которой якобы владеет. По ходу расследования выясняется, что Ханна не имеет никаких суперспособностей, а взрывы были осуществлены в результате открытой «двери» из ада в мир людей, и через эти двери в наш мир проник некий «человек-призрак». Теперь Колсону со своей группой нужно разобраться в паранормальных вещах, происходящих вокруг Ханны…
10   «The Bridge»
«Мост»   Холли Дэйт   Шалиша Франсис   10 декабря 2013   6,11[40]
«Щ.И.Т.» вновь сталкивается с проектом «Сороконожка», когда Рейна вместе с недавно освобождённым из тюрьмы подельником отправляется к таинственному Провидцу, который может дать «ключ» к продолжению их экспериментов по созданию новых суперсолдат. Тем временем Колсон выходит на Майка Петерсона, который был одним из первых подопытных, но Рейна, похитив его сына, вынуждает Майка сдать Колсона «Сороконожке». Когда агент оказывается схвачен, «девушка в цветочном платье» раскрывает Колсону цель его похищения: узнать, каким образом он когда-то остался жив, хоть должен был умереть.
11   «The Magical Place»
«Волшебное место»   Кэвин Хукс   Пол Збузжевски и Брэнт Флетчер   7 января 2014   6,63[41]
Рейна пытается выяснить, как Колсон смог вернуться к жизни после своей смерти, и добивается успеха в этом. Тем временем, «Щ.И.Т.» готовит спасательную операцию, в ходе которой похищенного агента освобождают, а Рейну берут под стражу. Колсон, к которому вернулись воспоминания о дне его смерти, осознаёт, что его «воскресили» с помощью неизвестных технологий «Щ.И.Т.а», и затем пытается узнать больше у одного из участников той самой процедуры.
12   «Seeds»
«Дурное семя»   Кен Финк   Моника Овусу-Брин и Джэд Уидон   14 января 2014   6,37[42]
Фитц и Симмонс вместе с Уордом и Скай отправляются в университет «Щ.И.Т.а», где готовят будущих учёных и оперативников организации, чтобы разобраться в таинственных происшествиях, связанных с «замораживанием» некоторых студентов. Тем временем Колсон и Мей находят человека, который знает, кем на самом деле является Скай, и раскрывает «Щ.И.Т.у» некоторые моменты детства хакерши.
13   «T.R.A.C.K.S.»
«П.У.Т.И.»   Пол Эдвардс   Лорен ЛеФранк и Рэйф Джадкинс   4 февраля 2014   6,62 [43]
Команда выслеживает перевозку неопознанного секретного устройства (0-8-4) с целью доставить его бизнесмену, а также одному из людей Провидца Йену Куинну и отправляется по следам этого маршрута. В ходе операции Скай, которая на самом деле также является «0-8-4», оказывается раненой Куинном и чуть не умирает от потери крови.
14   «T.A.H.I.T.I.»
«Т.А.И.Т.И.»   Бобби Рот   Джеффри Белл   4 марта 2014   5,46[44]
Умирающую Скай доставляют в больницу, но повреждения слишком серьёзные. Скай фактически существует за счёт медоборудования и в любой момент может скончаться. Фил Колсон и Команда решаются на отчаяный шаг — найти объект «Таити», где Колсона вернули к жизни и повторить это со Скай. К ним присоединяется учитель Уорда Джон Гаррет и его новый ученик, агент Триплетт, которым поручено допросить Йена Куинна. В конце концов Колсон выясняет, откуда берётся таинственный препарат, возвращающий жизнь. На Землю прибывает асгардийка Лорелей.
15   «Yes Men»
«Безотказные»   Джон Терлески   Шалиша Франсис   11 марта 2014   5,99[45]
Команда имеет дело с Сиф, воительницей, соратницей Тора. Сиф прибыла на Землю из Асгарда, чтобы поймать сбежавшую из заключения Лорелей. Сложность заключается в том, что ни один мужчина не сможет противиться её чарующему голосу. Отношения между Мэй и Уордом уже не будут казаться такими непринуждёнными.
16   «End of the Beginning»
«Конец начала»   Бобби Рот   Пол Збужевски   1 апреля 2014   5,71[46]
Провидца выслеживают и убивают, но возникают сомнения: действительно ли это был Провидец или только подставное лицо? Возникает подозрение, что Мэй работает на Провидца. Тем временем управление самолётом перехватывается извне.
17   «Turn, Turn, Turn»
«Обернись, обернись, обернись»   Винсент Мисиано   Джед Уидон и Маурисса Тэнчероен   8 апреля 2014   5,37[47]
События эпизода происходят во время фильма «Первый мститель: Другая война»[28]. «Г.И.Д.Р.А.» активизируется и захватывает «Щ.И.Т.». Виктория Хэнд подозревает Колсона в участии в организации «Г.И.Д.Р.А.». Колсон раскрывает личность Провидца: им оказывается агент «Щ.И.Т.а» Джон Гаррет, оказалось, что Провидец — член организации «Г.И.Д.Р.А.», Виктория всё слышала и сняла обвинение. Провидца хватают и хотят убить, но Уорд переходит на сторону Гаррета и убивает Викторию Хэнд.
18   «Providence»
«Провидение»   Милан Чейнов   Брент Флетчер   15 апреля 2014   5,52[48]

«Г.И.Д.Р.А.» продолжает активные действия в захвате «Щ.И.Т.а». Рейну освобождают, и она узнаёт правду о Провидце, который просит её продолжить проект «Многоножка». Уорд предоставляет ей все наработки Симмонс в этом направлений, а сам вместе с Гарретом отправляется на штурм Холодильника. Колсон и его команда вынуждены искать убежища. Их дела обстоят хуже некуда: самолёт в плохом состоянии, лететь некуда, верить никому нельзя и сами они уже словно призраки. Но тут обнаруживается один интересный факт… Есть спрятанное убежище, которое до сих пор принадлежит «Щ.И.Т.у». Также Колсон узнаёт, что Ник Фьюри жив, но о его местоположении никто не знает.
В то же время Рейна сообщает Гаррету, что винчестер с нужными ей данными защищён. И защищён именно Скай. Теперь Уорд вынужден решить эту проблему.
19   «The Only Light in the Darkness»
«Единый свет во тьме»   Винсент Мисиано   Моника Овусу-Брин   22 апреля 2014   6,04[49]
Уорду нужен ключ от винчестера с исследованиями Симмонс, зашифрованного Скай. Для этого он добирается до секретной базы директора Фьюри, где находится команда. Все проходят проверку на детекторе лжи, где Уорд чуть не попадается. В это же время Колсон и часть команды собирается разыскать преступника из Холодильника, обладающего некой силой «чёрной материи» и охотящегося за виолончелисткой. Мэй решает покинуть команду и уходит в свободный путь. В итоге Скай узнаёт, что Уорд — из организации «Г.И.Д.Р.А.», но садится с ним на самолёт Колсона, не подавая вида…
20   «Nothing Personal»
«Ничего личного»   Билли Гирхарт   Пол Збужевски и ДиДж Дойл   29 апреля 2014   5,94[50]
В кафе, где Скай якобы пытается расшифровать данные, она выдаёт Уорда полицейским и пытается сбежать. Уорд расправляется с полицейскими, а Майк хватает Скай и вынуждает её расшифровать данные. Колсон помогает Скай сбежать. Мэй приносит Колсону информацию о проекте «Таити».
21   «Ragtag»
«Сброд»   Роксанн Доусон   Джеффри Белл   6 мая 2014   5.37[51]
Агенту Колсону нужны хоть какие-то сведения о Гаррете и «Г.И.Д.Р.е», поэтому он вместе со своей командой проникает в здание «Кибертек». Скай пытается найти компьютер, чтобы загрузить вирус и скачать нужные сведения, но оказывается, что все данные компании хранятся в бумажном виде. Колсон и Мэй сбегают вместе с нужными бумагами и, прочтя их, узнают, что Гаррет является первым объектом «Детлок». Между действиями нам показываются эпизоды из прошлого Уорда и становится понятно, почему он всем обязан Гаррету. Команда Колсона находит свой самолёт на Кубе и отправляется туда. По прибытию они разделяются на две группы, первая ищет старую базу «Щ.И.Т.а», а Фитц и Симмонс ищут самолёт. Фитца вместе с Симмонс захватывает Уорд и доставляется к Гаррету, Фитц не растерялся и использовал мини-ЭМИ устройство, чтобы отключить Гаррета. Вместе с Симмонс они сбегают и прячутся в одном из модулей самолёта, но Гаррет просит Уорда убить их и Уорд выполняет просьбу. В этом время Рейна вводит Гаррету GH-325.
22   «Beginning of the End»
«Начало конца»   Дэвид Стрейтон   Морисса Танчароэн и Джед Уидон   13 мая 2014   5.45[52]

Гаррет убивает одного из генералов США, пришедших на переговоры с «Г.И.Д.Р.ой», и захватывает остальных. Колсону с его людьми удаётся захватить центр соединения солдат-«сороконожек». Фитц и Симмонс удаётся всплыть на поверхность, где их неожиданно спасает Ник Фьюри, нашедший их по сигналу маячка. Мэй и Уорд вступают в схватку, и Мэй побеждает. Майк узнаёт, что его сын свободен, и прибивает Гаррета. Гаррет смог это пережить и усилил себя кибер-имплантатами, и тут Колсон убивает его окончательно. Фьюри передаёт Колсону пост директора «Щ.И.Т.а».
Рейна сообщает отцу Скай, что нашла её.
pic pic pic
Для увеличения картинки щелкните мышкой по превью


P.S.: Данные о продолжительности и битрейте указанны приблизительно и усредненно, более точную информацию по каждому файлу вы можете посмотреть в прилагаемом "медиаинфо" под спойлером.

Этот торрент недоступен для скачивания без регистрации, однако доступен по публичной magnet-ссылке (источники с публичных трекеров). Перед использованием ссылки прочтите, пожалуйста Пользовательское соглашение, а также как можно дольше оставайтесь на раздаче! Для того, чтобы скачать сам торрент-файл (который видит больше источников), а также для того, чтобы поблагодарить релизера, вам необходимо зарегистрироваться. Если регистрироваться лень - вы можете также попробовать скачать релиз по нашим партнерским ссылкам ниже.

[underverse.su].t40965.torrent
Трекер: Зарегистрирован   [ 14.06.2014 10:49 ]  

Статус: проверено (by garry at 14.06.2014 18:08)
Поблагодарили: 2 человека
Тип торрента: публичный - доступные источники с открытых трекеров: 
Размер: 9,39 GB (занимает 2,14 DVDR, для записи нужно 3 болванки DVDR/RW)
 
 
Похожие темы
Форум Тема Автор Торрент Отв. Посл. сооб.
Зарубежные сериалы Агенты Щ.И.Т. / Agents of S.H.I.E.L.D. / Сезон 2 (1-22 серии из 22) (Винс Мисиано, Билл Джирхарт, Бобби Рот) [2014 г., фантастика, боевик, драма, WEB-DLRip] MVO + Original older
42 | 4

0 | 477

5

10.09.2015 14:04

T Зарубежные сериалы Агенты Щ.И.Т. / Marvel's Agents of S.H.I.E.L.D. / Сезон 3 (01-19 из 22) (Джесси Бокко, Милан Чейлов, Роксанн Доусон, Дэвид Стрейтон, Джосс Уидон, Винс Мисиано) [2015 г., Боевик, фантастика, драма,... Dryn9
6 | 4

0 | 845

5

06.05.2016 07:47



Последний раз редактировалось: yejik123 (14.06.2014 18:06), всего редактировалось 2 раз(а)

8ad_R060d Пол:Муж

14-Июн-2014 11:56

Обратите пожалуйста внимание, на то, что первые два скриншота дублируют друг друга. Надо бы исправить.

yejik123 

14-Июн-2014 17:16

Исправлено. Так же прошу убрать замечание за самовольное удаление торента, так как создав эту тему я его восстановил.

garry Пол:Муж

14-Июн-2014 17:52

yejik123
я Вам уже писал про скриншоты. здесь та же проблема. либо делаете сами с видеофайла через плеер, либо заливайте с ресурса, где брали сериал, уже готовые.

Цитата:

Так же прошу убрать замечание за самовольное удаление торента, так как создав эту тему я его восстановил.
нужно было согласовать с модератором.

14-Июн-2014 17:52

Топик был перенесен из форума Зарубежные сериалы в форум Отстойник

Причина переноса: неоформлено
gari
 

14-Июн-2014 18:09

Топик был перенесен из форума Отстойник в форум Зарубежные сериалы


gari
 

Serhio1811 Пол:Муж

16-Июн-2014 22:42

Ну и где раздающие?.. Какой день уже не качается...

garry Пол:Муж

16-Июн-2014 22:44

Serhio1811
посмотрите внимательно, пожалуйста. сидер на раздаче есть. так что проблема у Вас.

Яндекс.Метрика powered by Sphinx


В Н И М А Н И Е
Сайт не распространяет и не хранит электронные версии произведений, а лишь бесплатно и без коммерческой выгоды (не требуя взамен платы,
SMS и т.д.) предоставляет доступ к создаваемому пользователями каталогу ссылок на торрент-файлы, которые содержат только списки хеш-сумм.
Убедительная просьба с жалобами обращаться напрямую к пользователю, разместившему торрент файл.

Вверх