Loading...
Error

Стрелок 2. Право на смерть (1-4 серии из 4) (Аршо Арутюнян) [2014 г., Боевик, SatRip]

Статистика раздачи
Размер:  1,95 GB   |    Зарегистрирован:  3 года   |    Скачан:  28 раз

Полного источника не было: 1 месяц 11 дней

Сидов:  0  |  0 KB/s  ]   Личеров:  0  |  0 KB/s  ]

* - сиды/пиры с внешних источников

   
 
Автор Сообщение

nemos Пол:Муж

12-Июн-2014 17:07

Стрелок 2. Право на смерть


Год выпуска: 2014
Жанр: Боевик
Страна: Россия
Режиссер: Аршо Арутюнян
В ролях: Евгений Березовский, Александр Носик, Станислав Эрклиевский, Дмитрий Клепацкий, Юлия Борисова (III), Сергей Холмогоров, Сос Джанибекян, Давид Кацарава, Арам Караханян, Сергей Апрельский, Виктор Фалалеев
Сюжет фильма:
События разворачиваются в наши дни в одном из среднеазиатских государств. Брата Мадины, вступившегося за сестру, убивают преследующие девушку бандиты. Отцу Мадины Абдулу отказывает в помощи давний друг. Убитый горем мужчина вынужден искать поддержки на стороне, так как все вокруг или запуганы, или подкуплены бандой головорезов. Абдул приезжает в Москву, где знакомится с бывшим сотрудником спецслужб Андреем Макаровым. Андрей соглашается помочь Абдулу. Спецслужбы оказывают Макарову негласное содействие. Помогают Андрею и его товарищам и односельчане Абдула...
Качество видео: SatRip

Продолжительность: 00:45:00 серия
Формат: AVI
Видео: DivX, 704x288, 1 464 kbps
Аудио: русский, MP3 2.0, 128 kbps

Код:

D:\Фильмы (роздача)\Strelok.2\Strelok.2.4.avi
   General
      Complete name : D:\Фильмы (роздача)\Strelok.2\Strelok.2.4.avi
      Format : AVI
      Format/Info : Audio Video Interleave
      File size : 473 MiB
      Duration : 41mn 17s
      Overall bit rate : 1 601 Kbps
      Writing application : VirtualDubMod 1.5.10.2 (build 2540/release)
      Writing library : VirtualDub build 29808/release
   Video #0
      ID : 0
      Format : MPEG-4 Visual
      Format settings, BVOP : No
      Format settings, QPel : No
      Format settings, GMC : No warppoints
      Format settings, Matrix : Default (H.263)
      Codec ID : DX50
      Codec ID/Hint : DivX 5
      Duration : 41mn 17s
      Bit rate : 1 464 Kbps
      Width : 704 pixels
      Height : 288 pixels
      Display aspect ratio : 2.40:1
      Frame rate : 25.000 fps
      Color space : YUV
      Chroma subsampling : 4:2:0
      Bit depth : 8 bits
      Scan type : Progressive
      Compression mode : Lossy
      Bits/(Pixel*Frame) : 0.289
      Stream size : 432 MiB (91%)
      Writing library : DivX 6.8.5 (UTC 2009-08-20)
   Audio #1
      ID : 1
      Format : MPEG Audio
      Format version : Version 1
      Format profile : Layer 3
      Mode : Joint stereo
      Codec ID : 55
      Codec ID/Hint : MP3
      Duration : 41mn 17s
      Bit rate mode : Constant
      Bit rate : 128 Kbps
      Channel(s) : 2 channels
      Sampling rate : 48.0 KHz
      Compression mode : Lossy
      Stream size : 37.8 MiB (8%)
      Alignment : Aligned on interleaves
      Interleave, duration : 40 ms (1.00 video frame)
      Interleave, preload duration : 504 ms
picpicpicpicpicpicpicpicpicpicpicpicpicpicpicpicpicpicpic
Для увеличения картинки щелкните мышкой по превью

Этот торрент недоступен для скачивания без регистрации, однако доступен по публичной magnet-ссылке (источники с публичных трекеров). Перед использованием ссылки прочтите, пожалуйста Пользовательское соглашение, а также как можно дольше оставайтесь на раздаче! Для того, чтобы скачать сам торрент-файл (который видит больше источников), а также для того, чтобы поблагодарить релизера, вам необходимо зарегистрироваться. Если регистрироваться лень - вы можете также попробовать скачать релиз по нашим партнерским ссылкам ниже.

[underverse.su].t40949.torrent
Трекер: Зарегистрирован   [ 12.06.2014 17:07 ]  

Статус: проверено (by nemos at 12.06.2014 17:07)
Поблагодарили: 2 человека
Тип торрента: публичный - доступные источники с открытых трекеров: 
Размер: 1,95 GB (занимает 0,45 DVDR, для записи нужно 1 болванка DVDR/RW)
 
 


Последний раз редактировалось: nemos (16.06.2014 09:22), всего редактировалось 1 раз

nemos Пол:Муж

12-Июн-2014 18:20

Стрелок (4 серии из 4) (2012) сериал (Арман Геворгян) [2012 г., Боевик, SatRip] можете скачать здесь http://underverse.su/viewtopic.php?t=20282&spmode=full#seeders

Яндекс.Метрика powered by Sphinx


В Н И М А Н И Е
Сайт не распространяет и не хранит электронные версии произведений, а лишь бесплатно и без коммерческой выгоды (не требуя взамен платы,
SMS и т.д.) предоставляет доступ к создаваемому пользователями каталогу ссылок на торрент-файлы, которые содержат только списки хеш-сумм.
Убедительная просьба с жалобами обращаться напрямую к пользователю, разместившему торрент файл.

Вверх