Loading...
Error

Полночь FM / Simyaui FM (Санг Ман Ким) [2010 г., триллер, BDRip] VO [den904]

Статистика раздачи
Размер:  1,46 GB   |    Зарегистрирован:  2 года 5 месяцев   |    Скачан:  0 раз

Полного источника не было: 1 год 10 месяцев

Сидов:  0  |  0 KB/s  ]   Личеров:  0  |  0 KB/s  ]

* - сиды/пиры с внешних источников

   
 
Автор Сообщение

Паукан Пол:Муж

08-Июн-2014 08:18

Полночь FM / Simyaui FM


Название: Полночь FM (Полночное радио) (Полночный эфир)
Оригинальное название: Simyaui FM (Midnight FM)
Год выхода: 2010
Жанр: Триллер
Режиссер: Санг Ман Ким
В ролях: Су Э, Чжи Тхэ Ю, Чжон Ха Ли, Да Ын Шин, Хе Вон Чхве, Дон Сок Ма, Сон Хён Чхве, Ман Сик Чон, Мин Кю Ким, Сук Хён Чо, Хюна Ким, Чжи Хён Нам, Бён Кю Квак

О фильме:
Популярная радиоведущая заканчивает последний выпуск ночных новостей, после чего планирует подготовить свою больную дочь к поездке в Америку следующим утром... Но во время передачи, она получает странное сообщение...из дома. В прямом эфире Сон Ён попытается спасти свою семью от таинственного психопата Хан Дон Су...



Страна: Южная Корея
Студия: Hong Film, Weekend Cinema
Продолжительность: 01:43:27
Перевод: Любительский одноголосый [den904 (раннее)]
Оригинальная аудио-дорожка: Нет

Кодек: XviD
Качество: BDRip
Видео: XviD, 720x304 (2.35:1), 1570 Кбит/с, 23, 976 кадр/с
Звук: Русский, Dolby AC3, 48000 Гц, 448 Кбит/с, 6 каналов (5.1)
Субтитры: Нет

Сэмпл
General
Complete name : Midnight.FM.2010.BDRip.avi
Format : AVI
Format/Info : Audio Video Interleave
File size : 1.46 GiB
Duration : 1h 44mn
Overall bit rate : 2 028 Kbps
Writing application : VirtualDubMod 1.5.10.3 | www.virtualdub-fr.org || (build 2550/release)
Writing library : VirtualDubMod build 2550/release

Video
ID : 0
Format : MPEG-4 Visual
Format profile : Advanced Simple@L5
Format settings, BVOP : 1
Format settings, QPel : No
Format settings, GMC : No warppoints
Format settings, Matrix : Custom
Codec ID : XVID
Codec ID/Hint : XviD
Duration : 1h 43mn
Bit rate : 1 570 Kbps
Width : 720 pixels
Height : 304 pixels
Display aspect ratio : 2.35:1
Frame rate : 23.976 fps
Color space : YUV
Chroma subsampling : 4:2:0
Bit depth : 8 bits
Scan type : Progressive
Compression mode : Lossy
Bits/(Pixel*Frame) : 0.298
Stream size : 1.13 GiB (77%)
Writing library : XviD 73

Audio
ID : 1
Format : AC-3
Format/Info : Audio Coding 3
Mode extension : CM (complete main)
Codec ID : 2000
Duration : 1h 43mn
Bit rate mode : Constant
Bit rate : 448 Kbps
Channel(s) : 6 channels
Channel positions : Front: L C R, Side: L R, LFE
Sampling rate : 48.0 KHz
Bit depth : 16 bits
Compression mode : Lossy
Stream size : 332 MiB (22%)
Alignment : Split accross interleaves
Interleave, duration : 42 ms (1.00 video frame)
Interleave, preload duration : 500 ms
pic pic pic
Для увеличения картинки щелкните мышкой по превью

Этот торрент недоступен для скачивания без регистрации, однако доступен по публичной magnet-ссылке (источники с публичных трекеров). Перед использованием ссылки прочтите, пожалуйста Пользовательское соглашение, а также как можно дольше оставайтесь на раздаче! Для того, чтобы скачать сам торрент-файл (который видит больше источников), а также для того, чтобы поблагодарить релизера, вам необходимо зарегистрироваться. Если регистрироваться лень - вы можете также попробовать скачать релиз по нашим партнерским ссылкам ниже.

[underverse.su].t40814.torrent
Трекер: Зарегистрирован   [ 08.06.2014 08:18 ]  

Статус: проверено (by Паукан at 08.06.2014 08:19)
Поблагодарили: пока никто не поблагодарил...
Тип торрента: публичный - доступные источники с открытых трекеров: 
Размер: 1,46 GB (занимает 0,33 DVDR, для записи нужно 1 болванка DVDR/RW)
 
 

Яндекс.Метрика powered by Sphinx


В Н И М А Н И Е
Сайт не распространяет и не хранит электронные версии произведений, а лишь бесплатно и без коммерческой выгоды (не требуя взамен платы,
SMS и т.д.) предоставляет доступ к создаваемому пользователями каталогу ссылок на торрент-файлы, которые содержат только списки хеш-сумм.
Убедительная просьба с жалобами обращаться напрямую к пользователю, разместившему торрент файл.

Вверх