Loading...
Error

Охотники за сокровищами / The Monuments Men (Джордж Клуни) [2014 г., боевик, драма, военный, биография , BDRip] Dub + Original + Sub (Eng) HQ Underverse

Статистика раздачи
Размер:  2,17 GB   |    Зарегистрирован:  2 года 6 месяцев   |    Скачан:  125 раз
Сидов:  2  |  0 KB/s  ]   Личеров:  0  |  0 KB/s  ]

* - сиды/пиры с внешних источников

   
 
Автор Сообщение

HQ Underverse 

06-Июн-2014 13:59

Охотники за сокровищами / The Monuments Men


Год выпуска: 2014
Жанр: боевик, драма, военный, биография
Страна: США , Германия
Режиссер: Джордж Клуни
В ролях: Джордж Клуни, Мэтт Дэймон, Билл Мюррей, Джон Гудман, Жан Дюжарден, Боб Бэлабан, Хью Бонневилль, Кейт Бланшетт, Димитрий Леонидас, Юстус фон Донаньи
Сюжет фильма:
Фильм основан на реальных событиях — величайшей охоте на сокровища в истории. Во время Второй мировой войны команда из искусствоведов и хранителей музеев объединяется, чтобы спасти известные произведения искусства, похищенные нацистами, прежде чем те успеют их уничтожить.
/
Качество видео: BDRip

Продолжительность: 01:58:23
Формат: avi
Видео: XviD, 720x304, 2164 kbps
Аудио #1: русский, дублированный [лицензия], AC3 5.1, 448 kbps
Аудио #2: английский, оригинал, AC3 5.1, 448 kbps (отдельным файлом: здесь)
Субтитры: внешние, SRT, английский

Код:

General
Complete name                    : Z:\windoza-share\Охотники за сокровищами\Monuments.Men.2014.BDRip.XviD.AC3.Rus.D.HQ.Underverse.avi
Format                           : AVI
Format/Info                      : Audio Video Interleave
Format profile                   : OpenDML
File size                        : 2.17 GiB
Duration                         : 1h 58mn
Overall bit rate                 : 2 625 Kbps
Writing application              : VirtualDubMod 1.5.10.2 (build 2542/release)
Writing library                  : VirtualDubMod build 2542/release

Video
ID                               : 0
Format                           : MPEG-4 Visual
Format profile                   : Streaming Video@L1
Format settings, BVOP            : Yes
Format settings, QPel            : No
Format settings, GMC             : No warppoints
Format settings, Matrix          : Custom
Muxing mode                      : Packed bitstream
Codec ID                         : XVID
Codec ID/Hint                    : XviD
Duration                         : 1h 58mn
Bit rate                         : 2 165 Kbps
Width                            : 720 pixels
Height                           : 304 pixels
Display aspect ratio             : 2.35
Frame rate                       : 23.976 fps
Resolution                       : 24 bits
Colorimetry                      : 4:2:0
Scan type                        : Progressive
Bits/(Pixel*Frame)               : 0.413
Stream size                      : 1.79 GiB (82%)
Writing library                  : XviD 64

Audio
ID                               : 1
Format                           : AC-3
Format/Info                      : Audio Coding 3
Codec ID                         : 2000
Duration                         : 1h 58mn
Bit rate mode                    : Constant
Bit rate                         : 448 Kbps
Channel(s)                       : 6 channels
Channel positions                : Front: L C R, Surround: L R, LFE
Sampling rate                    : 48.0 KHz
Stream size                      : 379 MiB (17%)
Alignment                        : Split accross interleaves
Interleave, duration             : 42 ms (1.00 video frame)
Interleave, preload duration     : 500 ms

General
Complete name                    : Z:\windoza-share\Охотники за сокровищами\Monuments.Men.2014.BDRip.XviD.AC3.Rus.D.HQ.Underverse.ENG.ac3
Format                           : AC-3
Format/Info                      : Audio Coding 3
File size                        : 379 MiB
Duration                         : 1h 58mn
Overall bit rate                 : 448 Kbps

Audio
Format                           : AC-3
Format/Info                      : Audio Coding 3
Duration                         : 1h 58mn
Bit rate mode                    : Constant
Bit rate                         : 448 Kbps
Channel(s)                       : 6 channels
Channel positions                : Front: L C R, Surround: L R, LFE
Sampling rate                    : 48.0 KHz
Stream size                      : 379 MiB (100%)

Релиз группы:

picpicpic
Для увеличения картинки щелкните мышкой по превью

Этот торрент недоступен для скачивания без регистрации, однако доступен по публичной magnet-ссылке (источники с публичных трекеров). Перед использованием ссылки прочтите, пожалуйста Пользовательское соглашение, а также как можно дольше оставайтесь на раздаче! Для того, чтобы скачать сам торрент-файл (который видит больше источников), а также для того, чтобы поблагодарить релизера, вам необходимо зарегистрироваться. Если регистрироваться лень - вы можете также попробовать скачать релиз по нашим партнерским ссылкам ниже.

[underverse.su].t40779.torrent
Трекер: Зарегистрирован   [ 06.06.2014 13:59 ]  

Статус: проверено (by HQ Underverse at 06.06.2014 14:00)
Поблагодарили: 8 человек
Тип торрента: публичный - доступные источники с открытых трекеров: 
Размер: 2,17 GB (занимает 1/2 DVDR, для записи нужно 1 болванка DVDR/RW)
 
 
Похожие темы
Форум Тема Автор Торрент Отв. Посл. сооб.
Зарубежное кино [DVDRip, Low-Res HDRip, и т.д.] Охотники за привидениями / Ghostbusters (Пол Фиг / Paul Feig) [2016 г., фантастика, фэнтези, комедия, BDRip] [IMAX] [Extended Cut] Dub 90ytr90
131 | 12

0 | 312

2

22.11.2016 20:42

Зарубежное кино [DVDRip, Low-Res HDRip, и т.д.] Охотники за головами / Hodejegerne (Мортен Тильдум) [2011 г., боевик, триллер, криминал, HDRip-AVC] TARAKAN
0 | 1

0 | 589

3

04.02.2012 13:19

Зарубежное кино [DVDRip, Low-Res HDRip, и т.д.] Охотники за головами / Hodejegerne / Headhunters (Мортен Тильдум) [2011 г., боевик, триллер, криминал, BDRip-AVC] Dub + Original (Nor) + Sub (Rus, Eng, Nor) 90ytr90
16 | 0

0 | 309

4

16.11.2016 18:33

Зарубежное кино [DVDRip, Low-Res HDRip, и т.д.] Охотники за головами / Hodejegerne / Headhunters (Мортен Тильдум) [2011 г., боевик, триллер, криминал, BDRip] Dub 90ytr90
0 | 0

0 | 1210

12

16.01.2013 14:35

Зарубежное кино [DVDRip, Low-Res HDRip, и т.д.] Охотники за головами / Hodejegerne / Headhunters (Мортен Тильдум) [2011 г., боевик, триллер, криминал, HDRip] Dub 90ytr90
0 | 0

0 | 518

9

16.01.2013 16:27

Зарубежное кино [DVDRip, Low-Res HDRip, и т.д.] Охотники за привидениями / Ghostbusters (Пол Фиг / Paul Feig) [2016 г., фантастика, фэнтези, комедия, BDRip-AVC] [Extended Cut] Dub + Original (Eng) + Sub (Rus, Eng) 90ytr90
81 | 5

0 | 165

5

05.11.2016 07:09

Зарубежное кино [DVDRip, Low-Res HDRip, и т.д.] Охотники за привидениями / Ghostbusters (Пол Фиг / Paul Feig) [2016 г., фантастика, фэнтези, комедия, BDRip] [Extended Cut] Dub 90ytr90
136 | 12

0 | 297

4

02.11.2016 20:21

Зарубежное кино [DVDRip, Low-Res HDRip, и т.д.] Охотники за привидениями / Ghostbusters (Пол Фиг / Paul Feig) [2016 г., фантастика, фэнтези, комедия, HDRip] [Theatrical Cut] Dub + hardsub (Rus) 90ytr90
43 | 4

0 | 264

1

02.11.2016 19:10

Зарубежное кино [DVDRip, Low-Res HDRip, и т.д.] Охотники за привидениями / Ghostbusters (Пол Фиг / Paul Feig) [2016 г., фантастика, фэнтези, комедия, HDRip] [Extended Cut] Dub + Sub (Rus) 90ytr90
277 | 13

0 | 300

10

02.11.2016 19:20

T Зарубежное кино [DVDRip, Low-Res HDRip, и т.д.] Охотники за духами / Ghost Team One (Бен Пейсер, Скотт Рутерфорд) [2013 г., ужасы, комедия, HDRip] Dub (iTunes) 90ytr90
1 | 0

0 | 1244

21

01.04.2014 14:19


Яндекс.Метрика powered by Sphinx


В Н И М А Н И Е
Сайт не распространяет и не хранит электронные версии произведений, а лишь бесплатно и без коммерческой выгоды (не требуя взамен платы,
SMS и т.д.) предоставляет доступ к создаваемому пользователями каталогу ссылок на торрент-файлы, которые содержат только списки хеш-сумм.
Убедительная просьба с жалобами обращаться напрямую к пользователю, разместившему торрент файл.

Вверх