Loading...
Error

Отель «Гранд Будапешт» / The Grand Budapest Hotel (Уэс Андерсон / Wes Anderson) [2014, Великобритания, Германия, Комедия, детектив, приключения, криминал, HDRip] Dub (Лицензия)

Статистика раздачи
Размер:  1,46 GB   |    Зарегистрирован:  2 года 6 месяцев   |    Скачан:  101 раз

Полного источника не было: 3 часа

Сидов:  0  |  0 KB/s  ]   Личеров:  0  |  0 KB/s  ]

* - сиды/пиры с внешних источников

   
 
Автор Сообщение

uzi2009 Пол:Муж

05-Июн-2014 19:48

Отель «Гранд Будапешт» / The Grand Budapest Hotel

Страна: Великобритания, Германия
Жанр: Комедия, детектив, приключения, криминал
Год выпуска: 2014
Продолжительность: 01:39:00

Перевод: Профессиональный (дублированный) Лицензия
Cубтитры: нет
Режиссер: Уэс Андерсон / Wes Anderson

В ролях: Рэйф Файнс, Тони Револори, Сирша Ронан, Эдриан Броуди, Уиллем Дефо, Ф. Мюррэй Абрахам, Джуд Лоу, Эдвард Нортон, Джефф Голдблюм, Харви Кейтель

Описание: Фильм рассказывает об увлекательных приключениях легендарного консьержа Густава и его юного друга, портье Зеро Мустафы. Сотрудники гостиницы становятся свидетелями кражи и поисков бесценных картин эпохи Возрождения, борьбы за огромное состояние богатой семьи и… драматических изменений в Европе между двумя кровопролитными войнами XX века.


Качество видео: HDRip
Формат видео: AVI

Видео: 720x384 (1.88:1), 23.976 fps, XviD build 50 ~1630 kbps avg, 0.25 bit/pixel
Аудио: 48 kHz, AC3 Dolby Digital, 3/2 (L,C,R,l,r) + LFE ch, ~448 kbps

MediaInfo
Общее
Полное имя : K:\The.grand.budapest.hotel.2014.D.HDRip.1400Mb.avi
Формат : AVI
Формат/Информация : Audio Video Interleave
Размер файла : 1,46 Гбайт
Продолжительность : 1 ч. 39 м.
Общий поток : 2087 Кбит/сек
Программа кодирования : VirtualDubMod 1.5.10.2 (build 2540/release)
Библиотека кодирования : VirtualDubMod build 2540/release

Видео
Идентификатор : 0
Формат : MPEG-4 Visual
Профиль формата : Advanced Simple@L5
Параметр BVOP формата : 2
Параметр QPel формата : Нет
Параметр GMC формата : Без точки перехода
Параметр матрицы формата : Выборочная
Идентификатор кодека : XVID
Идентификатор кодека/Подсказка : XviD
Продолжительность : 1 ч. 39 м.
Битрейт : 1630 Кбит/сек
Ширина : 720 пикселей
Высота : 384 пикселя
Соотношение сторон : 1,85:1
Частота кадров : 23,976 кадра/сек
Цветовое пространство : YUV
Субдискретизация насыщенности : 4:2:0
Битовая глубина : 8 бит
Тип развёртки : Прогрессивная
Метод сжатия : С потерями
Бит/(Пиксели*Кадры) : 0.246
Размер потока : 1,14 Гбайт (78%)
Библиотека кодирования : XviD 1.2.1 (UTC 2008-12-04)

Аудио
Идентификатор : 1
Формат : AC-3
Формат/Информация : Audio Coding 3
Расширение режима : CM (complete main)
Параметр Endianness формата : Big
Идентификатор кодека : 2000
Продолжительность : 1 ч. 39 м.
Вид битрейта : Постоянный
Битрейт : 448 Кбит/сек
Каналы : 6 каналов
Расположение каналов : Front: L C R, Side: L R, LFE
Частота : 48,0 КГц
Битовая глубина : 16 бит
Метод сжатия : С потерями
Размер потока : 320 Мбайт (21%)
Выравнивание : Разделение по промежуткам
Продолжительность промежутка : 42 мс. (1,00 видеокадр)
Время предзагрузки промежутка : 500 мс.
Скриншоты
pic pic pic pic pic

Этот торрент недоступен для скачивания без регистрации, однако доступен по публичной magnet-ссылке (источники с публичных трекеров). Перед использованием ссылки прочтите, пожалуйста Пользовательское соглашение, а также как можно дольше оставайтесь на раздаче! Для того, чтобы скачать сам торрент-файл (который видит больше источников), а также для того, чтобы поблагодарить релизера, вам необходимо зарегистрироваться. Если регистрироваться лень - вы можете также попробовать скачать релиз по нашим партнерским ссылкам ниже.

[underverse.su].t40754.torrent
Трекер: Зарегистрирован   [ 05.06.2014 19:48 ]  

Статус: проверено (by nemos at 05.06.2014 21:06)
Поблагодарили: 2 человека
Тип торрента: публичный - доступные источники с открытых трекеров: 
Размер: 1,46 GB (занимает 1/3 DVDR, для записи нужно 1 болванка DVDR/RW)
 
 
Похожие темы
Форум Тема Автор Торрент Отв. Посл. сооб.
Зарубежное кино [DVDRip, Low-Res HDRip, и т.д.] Отель «Гранд Будапешт» / The Grand Budapest Hotel (Уэс Андерсон / Wes Anderson) [2014 г., комедия, детектив, приключения, криминал, HDRip] Dub + Original (Eng) 90ytr90
0 | 0

0 | 1302

47

06.06.2014 04:25

Зарубежное кино [DVDRip, Low-Res HDRip, и т.д.] Отель «Гранд Будапешт» / The Grand Budapest Hotel (Уэс Андерсон / Wes Anderson) [2014 г., комедия, детектив, приключения, криминал, HDRip-AVC] Dub 90ytr90
3 | 1

0 | 1583

104

06.06.2014 04:30

Зарубежное кино [DVDRip, Low-Res HDRip, и т.д.] Отель «Гранд Будапешт» / The Grand Budapest Hotel (Уэс Андерсон / Wes Anderson) [2014 г., комедия, детектив, приключения, криминал, HDRip] Dub 90ytr90
9 | 0

0 | 1237

26

09.06.2014 11:38

Зарубежное кино [DVDRip, Low-Res HDRip, и т.д.] Отель «Гранд Будапешт» / The Grand Budapest Hotel (Уэс Андерсон / Wes Anderson) [2014 г., комедия, детектив, приключения, криминал, BDRip-AVC] Dub + 3XAVO (Сербин, Назаров, Матвеев) + Original (Eng)... 90ytr90
23 | 1

0 | 474

14

02.03.2015 18:57

Зарубежное кино [DVDRip, Low-Res HDRip, и т.д.] Отель «Гранд Будапешт» / The Grand Budapest Hotel (Уэс Андерсон / Wes Anderson) [2014 г., комедия, детектив, приключения, криминал, BDRip] AVO (Сербин) 90ytr90
9 | 2

0 | 447

10

28.02.2015 21:33

Зарубежное кино [HDDVDRip / BDRip / WEB-DL / HDTV 1080/720р] Отель «Гранд Будапешт» / The Grand Budapest Hotel (Уэс Андерсон / Wes Anderson) [2014 г., комедия, детектив, приключения, криминал, BDRip 1080p] Dub + 3XAVO (Сербин, Матвеев, Назаров) + Original... 90ytr90
6 | 0

0 | 537

11

02.03.2015 19:11

Зарубежное кино [HDDVDRip / BDRip / WEB-DL / HDTV 1080/720р] Отель «Гранд Будапешт» / The Grand Budapest Hotel (Уэс Андерсон / Wes Anderson) [2014 г., комедия, детектив, приключения, криминал, BDRip 720p] Dub + Original (Eng) + Sub (Eng) 90ytr90
2 | 0

0 | 1353

86

06.06.2014 04:38

Зарубежное кино [HDDVDRip / BDRip / WEB-DL / HDTV 1080/720р] Отель «Гранд Будапешт» / The Grand Budapest Hotel (Уэс Андерсон / Wes Anderson) [2014 г., комедия, детектив, приключения, криминал, BDRip 1080p] Dub + Original (Eng) + Subs 90ytr90
4 | 0

0 | 379

26

10.06.2014 10:02



Последний раз редактировалось: uzi2009 (05.06.2014 20:40), всего редактировалось 1 раз

90ytr90 

02-Мар-2015 18:46


Оскар, 2015 год
Победитель (4):
Лучшие костюмы
Лучший грим и прически
Лучший саундтрек
Лучшая работа художника-постановщика
Номинации (5):
Лучший фильм
Лучший режиссер (Уэс Андерсон)
Лучший сценарий
Лучшая работа оператора
Лучший монтаж


Золотой глобус, 2015 год
Победитель (1):
Лучший фильм (комедия или мюзикл)
Номинации (3):
Лучшая мужская роль (комедия или мюзикл) (Рэйф Файнс)
Лучший режиссер (Уэс Андерсон)
Лучший сценарий


Британская академия, 2015 год
Победитель (5):
Лучший оригинальный сценарий
Лучшие костюмы
Лучший саундтрек
Лучшая работа художника-постановщика (Анна Пиннок, Адам Штокхаузен)
Лучший грим/прически
Номинации (6):
Лучший фильм
Лучшая мужская роль (Рэйф Файнс)
Лучшая работа оператора (Роберт Д. Йоумен)
Лучший звук
Лучший монтаж
Премия имени Дэвида Лина за достижения в режиссуре (Уэс Андерсон)


Сезар, 2015 год
Номинации (1):
Лучший фильм на иностранном языке


Премия Гильдии актеров, 2015 год
Номинации (1):
Лучший актерский состав


Берлинский кинофестиваль, 2014 год
Победитель (1):
Серебряный Медведь - Гран-при жюри
Номинации (1):
Золотой Медведь

Яндекс.Метрика powered by Sphinx


В Н И М А Н И Е
Сайт не распространяет и не хранит электронные версии произведений, а лишь бесплатно и без коммерческой выгоды (не требуя взамен платы,
SMS и т.д.) предоставляет доступ к создаваемому пользователями каталогу ссылок на торрент-файлы, которые содержат только списки хеш-сумм.
Убедительная просьба с жалобами обращаться напрямую к пользователю, разместившему торрент файл.

Вверх