Loading...
Error

Сын Божий / Son of God (Кристофер Спенсер / Christopher Spencer) [2014, США, драма, HDRip] VO

Статистика раздачи
Размер:  1,46 GB   |    Зарегистрирован:  2 года 6 месяцев   |    Скачан:  14 раз

Полного источника не было: 1 год 5 месяцев

Сидов:  0  |  0 KB/s  ]   Личеров:  0  |  0 KB/s  ]

* - сиды/пиры с внешних источников

   
 
Автор Сообщение

uzi2009 Пол:Муж

02-Июн-2014 12:18

Сын Божий / Son of God

Год выпуска: 2014
Производство: США, Hearst Entertainment Productions Inc
Жанр: Драма
Продолжительность: 02:18:13

Режиссер: Кристофер Спенсер
Продюсер: Ричард Бедсер, Марк Барнетт, Рома Дауни ...
Актеры: Диого Моргадо, Эмбер Роуз Рева, Рома Дауни, Себастьян Кнапп, Уильям Хьюстон, Пол Нопс, Дарси, Дэвид Ринтул, Гари Оливер, Стюарт Скудамор, Нонсо Анози, Конан Стивенс, Джасса Ахлувалиа, Лэнгли Кирквуд, Дауд Шах, Лейла Миммек, Джо Коэн

Описание фильма:
История Иисуса Христа от Его рождения, до распятия, Воскрешения и Вознесения.

Перевод: Одноголосый закадровый, любительский [qwerty]
Субтитры: Отсутствуют



Дата мировой премьеры: 28 февраля 2014

Качество видео: HDRip
Формат видео: AVI

Видео: Xvid, 720x304, 23.976fps, 1255kbps
Аудио: Dolby AC3, 48000Hz, 6 channels, 192kbps

Общее
Полное имя : D:\NNM\Сын божий\Syn Bozhij 2014 HDRip.avi
Формат : AVI
Формат/Информация : Audio Video Interleave
Размер файла : 1,46 Гбайт
Продолжительность : 2 ч. 18 м.
Общий поток : 1516 Кбит/сек
Программа кодирования : VirtualDubMod 1.5.10.3

Видео
Идентификатор : 0
Формат : MPEG-4 Visual
Профиль формата : Advanced Simple@L5
Параметр BVOP формата : 1
Параметр QPel формата : Нет
Параметр GMC формата : Без точки перехода
Параметр матрицы формата : Default (MPEG)
Идентификатор кодека : XVID
Идентификатор кодека/Подсказка : XviD
Продолжительность : 2 ч. 18 м.
Битрейт : 1315 Кбит/сек
Ширина : 720 пикселей
Высота : 304 пикселя
Соотношение сторон : 2,35:1
Частота кадров : 23,976 кадра/сек
Цветовое пространство : YUV
Субдискретизация насыщенности : 4:2:0
Битовая глубина : 8 бит
Тип развёртки : Прогрессивная
Метод сжатия : С потерями
Бит/(Пиксели*Кадры) : 0.251
Размер потока : 1,27 Гбайт (87%)
Библиотека кодирования : XviD 1.2.1 (UTC 2008-12-04)

Аудио
Идентификатор : 1
Формат : AC-3
Формат/Информация : Audio Coding 3
Расширение режима : CM (complete main)
Идентификатор кодека : 2000
Продолжительность : 2 ч. 18 м.
Вид битрейта : Постоянный
Битрейт : 192 Кбит/сек
Каналы : 6 каналов
Расположение каналов : Front: L C R, Side: L R, LFE
Частота : 48,0 КГц
Битовая глубина : 16 бит
Метод сжатия : С потерями
Размер потока : 190 Мбайт (13%)
Выравнивание : Разделение по промежуткам
Продолжительность промежутка : 42 мс. (1,00 видеокадр)
Время предзагрузки промежутка : 500 мс.
pic pic pic pic pic


Этот торрент недоступен для скачивания без регистрации, однако доступен по публичной magnet-ссылке (источники с публичных трекеров). Перед использованием ссылки прочтите, пожалуйста Пользовательское соглашение, а также как можно дольше оставайтесь на раздаче! Для того, чтобы скачать сам торрент-файл (который видит больше источников), а также для того, чтобы поблагодарить релизера, вам необходимо зарегистрироваться. Если регистрироваться лень - вы можете также попробовать скачать релиз по нашим партнерским ссылкам ниже.

[underverse.su].t40641.torrent
Трекер: Зарегистрирован   [ 02.06.2014 12:18 ]  

Статус: проверено (by Паукан at 02.06.2014 12:30)
Поблагодарили: пока никто не поблагодарил...
Тип торрента: публичный - доступные источники с открытых трекеров: 
Размер: 1,46 GB (занимает 0,33 DVDR, для записи нужно 1 болванка DVDR/RW)
 
 
Похожие темы
Форум Тема Автор Торрент Отв. Посл. сооб.
Зарубежное кино [DVDRip, Low-Res HDRip, и т.д.] Сын Божий / Son of God (Кристофер Спенсер) [2014 г., библейская драма, WEB-DLRip] VO Паукан
2 | 10

0 | 1141

0

26.05.2014 07:08

Зарубежное кино [DVDRip, Low-Res HDRip, и т.д.] Сын Божий / Son of God (Кристофер Спенсер) [2014 г., драма, HDRip] MVO Паукан
2 | 0

0 | 312

17

31.03.2015 13:11

02-Июн-2014 12:30

Топик был перенесен из форума Зарубежное кино [HDDVDRip / BDRip / WEB-DL / HDTV 1080/720р] в форум Зарубежное кино [DVDRip, Low-Res HDRip, и т.д.]


Паукан
 

Яндекс.Метрика powered by Sphinx


В Н И М А Н И Е
Сайт не распространяет и не хранит электронные версии произведений, а лишь бесплатно и без коммерческой выгоды (не требуя взамен платы,
SMS и т.д.) предоставляет доступ к создаваемому пользователями каталогу ссылок на торрент-файлы, которые содержат только списки хеш-сумм.
Убедительная просьба с жалобами обращаться напрямую к пользователю, разместившему торрент файл.

Вверх