Loading...
Error

Готова на всё / Malice (Хэролд Беккер / Harold Becker) [1993 г., триллер, криминал, детектив, HDTVRip] DVO

Статистика раздачи
Размер:  1,46 GB   |    Зарегистрирован:  2 года 6 месяцев   |    Скачан:  12 раз

Полного источника не было: 7 месяцев

Сидов:  0  |  0 KB/s  ]   Личеров:  0  |  0 KB/s  ]

* - сиды/пиры с внешних источников

   
 
Автор Сообщение

Паукан Пол:Муж

30-Май-2014 11:39

Готова на всё / Malice


Название: Готова на всё
Оригинальное название: Malice
Год выхода: 1993
Жанр: триллер, криминал, детектив
Режиссер: Хэролд Беккер / Harold Becker
В ролях: Алек Болдуин /Alec Baldwin/, Николь Кидман /Nicole Kidman/, Билл Пуллман /Bill Pullman/, Биби Ньюирт , /Bebe Neuwirth/, Джордж С. Скотт /George C. Scott/, Энн Бэнкрофт /Anne Bancroft/, Питер Галлахер /Peter Gallagher/, Джозеф Соммер /Josef Sommer/, Дебра Фарентино /Debrah Farentino/, Уильям Дафф-Гриффин /William Duff-Griffin/, Тобин Белл /Tobin Bell/, Дэвид Боуи /David Bowie/, Майкл Хэтт /Michael Hatt/, Дайэна Беллами /Diana Bellamy/, Пола Плам /Paula Plum/, Гвинет Пэлтроу /Gwyneth Paltrow/

О фильме:
В этом впечатляющем триллере, который можно, пожалуй, поставить в один ряд с "Молчанием ягнят" и "Основным инстинктом", конечно же, замешана женщина. И замес, надо отметить, крутой. И хотя людоеды и маньяки отсутствуют, в конце фильма вам может быть очень не по себе. Чтобы не портить удовольствие, больше о сюжете ни слова. Сами имена - Болдуин и Кидман - говорят за себя, а выложились эти звезды на все сто. (Иванов М.)



Страна: США, Канада
Продолжительность: 01:46:33
Перевод: Профессиональный (двухголосый закадровый) DVD-R5

Файл
Кодек: XviD
Качество: HDTVRip
Видео: 720x400, 23.976 fps, 1762 kbps
Звук: 48 kHz, AC3 Dolby Digital, 2/0 (L,R) ch, ~192 kbps
Общее
Полное имя : Malice.1993HDTVRip.avi
Формат : AVI
Формат/Информация : Audio Video Interleave
Размер файла : 1,46 Гбайт
Продолжительность : 1 ч. 46 м.
Общий поток : 1963 Кбит/сек
Программа кодирования : VirtualDubMod 1.5.10.3 | www.virtualdub-fr.org || (build 2550/release)
Библиотека кодирования : VirtualDubMod build 2550/release

Видео
Идентификатор : 0
Формат : MPEG-4 Visual
Профиль формата : Advanced Simple@L5
Параметр BVOP формата : 1
Параметр QPel формата : Нет
Параметр GMC формата : Без точки перехода
Параметр матрицы формата : Выборочная
Идентификатор кодека : XVID
Идентификатор кодека/Подсказка : XviD
Продолжительность : 1 ч. 46 м.
Битрейт : 1762 Кбит/сек
Ширина : 720 пикс.
Высота : 400 пикс.
Соотношение сторон : 16:9
Частота кадров : 23,976 кадр/сек
Цветовое пространство : YUV
Подвыборка цветности : 4:2:0
Битовая глубина : 8 бит
Тип развёртки : Прогрессивная
Метод сжатия : С потерями
Бит/(Пиксели*Кадры) : 0.255
Размер потока : 1,31 Гбайт (90%)
Библиотека кодирования : XviD 65

Аудио
Идентификатор : 1
Формат : AC-3
Формат/Информация : Audio Coding 3
Расширение режима : CM (complete main)
Идентификатор кодека : 2000
Продолжительность : 1 ч. 46 м.
Вид битрейта : Постоянный
Битрейт : 192 Кбит/сек
Канал(ы) : 2 канала(ов)
Расположение каналов : Front: L R
Частота : 48,0 КГц
Битовая глубина : 16 бит
Метод сжатия : С потерями
Размер потока : 146 Мбайт (10%)
Выравнивание : Разделение по промежуткам
Продолжительность промежутка : 42 мс. (1,00 видеокадр)
Время предзагрузки промежутка : 500 ms
pic pic pic
Для увеличения картинки щелкните мышкой по превью

Этот торрент недоступен для скачивания без регистрации, однако доступен по публичной magnet-ссылке (источники с публичных трекеров). Перед использованием ссылки прочтите, пожалуйста Пользовательское соглашение, а также как можно дольше оставайтесь на раздаче! Для того, чтобы скачать сам торрент-файл (который видит больше источников), а также для того, чтобы поблагодарить релизера, вам необходимо зарегистрироваться. Если регистрироваться лень - вы можете также попробовать скачать релиз по нашим партнерским ссылкам ниже.

[underverse.su].t40574.torrent
Трекер: Зарегистрирован   [ 30.05.2014 11:39 ]  

Статус: проверено (by Паукан at 30.05.2014 11:39)
Поблагодарили: 2 человека
Тип торрента: публичный - доступные источники с открытых трекеров: 
Размер: 1,46 GB (занимает 0,33 DVDR, для записи нужно 1 болванка DVDR/RW)
 
 

Яндекс.Метрика powered by Sphinx


В Н И М А Н И Е
Сайт не распространяет и не хранит электронные версии произведений, а лишь бесплатно и без коммерческой выгоды (не требуя взамен платы,
SMS и т.д.) предоставляет доступ к создаваемому пользователями каталогу ссылок на торрент-файлы, которые содержат только списки хеш-сумм.
Убедительная просьба с жалобами обращаться напрямую к пользователю, разместившему торрент файл.

Вверх