Loading...
Error

Настоящий детектив / True Detective / Сезон: 1 / Серии: 1-8 (8) (Кэри Фукунага / Cary Fukunaga) [2014 г., детектив, криминал, драма, BDRip] MVO (Amedia) HQ Underverse

Статистика раздачи
Размер:  8,42 GB   |    Зарегистрирован:  2 года 6 месяцев   |    Скачан:  66 раз

Полного источника не было: 5 часов

Сидов:  0  |  0 KB/s  ]   Личеров:  0  |  0 KB/s  ]

* - сиды/пиры с внешних источников

   
 
Автор Сообщение

HQ Underverse 

29-Май-2014 21:31

Настоящий детектив / True Detective


Год выпуска: 2014
Жанр: детектив, криминал, драма
Страна: США
Режиссер: Кэри Фукунага / Cary Fukunaga
В ролях: Мэттью МакКонахи, Вуди Харрельсон, Мишель Монахэн, Брюс Эллиотт, Рендал Гонсалес, Тори Киттлз, Дэвид Стивен Митчелл
Сюжет фильма:
Главные герои — два детектива. В 2012 году в штате Луизиана повторно открывается дело о серийном убийстве в 1995 году. Детективы познакомились 17 лет назад, когда началось расследование, и с тех пор вместе охотились за убийцей. Повествование будет вестись как в наше время, так и откатится назад, в середину девяностых.

  • Мировая премьера: 12 января 2014
  • Российская премьера: 13 января 2014


Качество видео: BDRip [True.Detective.S01.1080p.BluRay.AVC.DTS-HD.MA.5.1-HDAccess]

Продолжительность: ~00:58:00 x 8
Формат: avi
Видео: XviD, 720x400, 2126 kbps
Аудио: русский, многоголосый закадровый [профессиональный, Amedia], AC3 5.1, 384 kbps

Код:

General
Complete name                    : D:\Video\Movies\Releases\True.Detective.S01.2014.BDRip.XviD.AC3.Rus.MVO.HQ.Underverse\True.Detective.S01E01.2014.BDRip.XviD.AC3.Rus.MVO.HQ.Underverse.avi
Format                           : AVI
Format/Info                      : Audio Video Interleave
File size                        : 1.05 GiB
Duration                         : 59mn 45s
Overall bit rate                 : 2 520 Kbps
Writing application              : VirtualDubMod 1.5.10.2 (build 2542/release)
Writing library                  : VirtualDubMod build 2542/release

Video
ID                               : 0
Format                           : MPEG-4 Visual
Format profile                   : Streaming Video@L1
Format settings, BVOP            : Yes
Format settings, QPel            : No
Format settings, GMC             : No warppoints
Format settings, Matrix          : Custom
Muxing mode                      : Packed bitstream
Codec ID                         : XVID
Codec ID/Hint                    : XviD
Duration                         : 59mn 45s
Bit rate                         : 2 127 Kbps
Width                            : 720 pixels
Height                           : 400 pixels
Display aspect ratio             : 16/9
Frame rate                       : 23.976 fps
Resolution                       : 24 bits
Colorimetry                      : 4:2:0
Scan type                        : Progressive
Bits/(Pixel*Frame)               : 0.308
Stream size                      : 909 MiB (84%)
Writing library                  : XviD 64

Audio
ID                               : 1
Format                           : AC-3
Format/Info                      : Audio Coding 3
Codec ID                         : 2000
Duration                         : 59mn 44s
Bit rate mode                    : Constant
Bit rate                         : 384 Kbps
Channel(s)                       : 6 channels
Channel positions                : Front: L C R, Surround: L R, LFE
Sampling rate                    : 48.0 KHz
Stream size                      : 164 MiB (15%)
Alignment                        : Split accross interleaves
Interleave, duration             : 42 ms (1.00 video frame)
Interleave, preload duration     : 500 ms
Title                            : True.Detective.S01E01.2014.Rus.MVO.AC3.5.1.384.kbps.Amedia

Семпл: http://multi-up.com/976990

Релиз группы:

picpicpic
Для увеличения картинки щелкните мышкой по превью

Этот торрент недоступен для скачивания без регистрации, однако доступен по публичной magnet-ссылке (источники с публичных трекеров). Перед использованием ссылки прочтите, пожалуйста Пользовательское соглашение, а также как можно дольше оставайтесь на раздаче! Для того, чтобы скачать сам торрент-файл (который видит больше источников), а также для того, чтобы поблагодарить релизера, вам необходимо зарегистрироваться. Если регистрироваться лень - вы можете также попробовать скачать релиз по нашим партнерским ссылкам ниже.

[underverse.su].t40557.torrent
Трекер: Зарегистрирован   [ 05.06.2014 13:17 ]  

Статус: проверено (by HQ Underverse at 05.06.2014 13:19)
Поблагодарили: 4 человека
Тип торрента: публичный - доступные источники с открытых трекеров: 
Размер: 8,42 GB (занимает 1,92 DVDR, для записи нужно 2 болванки DVDR/RW)
 
 
Похожие темы
Форум Тема Автор Торрент Отв. Посл. сооб.
Зарубежное кино [DVDRip, Low-Res HDRip, и т.д.] Настоящий индийский роман / Shuddh Desi Romance (Маниш Шарма / Maneesh Sharma) [2013 г., драма, мелодрама, комедия, HDRip] MVO 90ytr90
22 | 1

0 | 1298

5

29.11.2013 13:14

Зарубежные сериалы Настоящий детектив / True Detective / Сезон: 1 / Серии: 1-8 (Кэри Фукунага) [2014 г., драма, криминал, HDTVRip] MVO + Original garry
19 | 2

1 | 4456

108

12.03.2014 15:35

Зарубежные сериалы [BD / Remux / BDRip / WEB-DL / HDTV 1080/720р] Настоящий детектив / True detective / Сезон: 1 / Серии: 8 из 8 (Кэри Фукунага) [2014, драма, криминал, HDTV 720p] MVO (AMedia) + Original uzi2009
1 | 0

1 | 1541

36

25.03.2015 15:33

Зарубежные сериалы [BD / Remux / BDRip / WEB-DL / HDTV 1080/720р] Настоящий детектив / True Detective / Сезон: 1 / Серии: 1-8 из 8 (Кэри Фукунага) [2014, драма, криминал, HDTV 1080i] DVO (Кубик в Кубе) + MVO (Novamedia) + Original uzi2009
1 | 0

0 | 2116

24

13.08.2014 06:48

Закрытые релизы Настоящий детектив / True Detective / Сезон 2 (1-8 серии из 8) (Кэри Фукунага, Джастин Лин, Дэниэл Эттиэс) [2015 г., детектив, криминал, триллер, драма, HDTVRip] MVO + Original older
4 | 2

1 | 813

37

26.07.2016 12:40



Последний раз редактировалось: HQ Underverse (05.06.2014 21:11), всего редактировалось 9 раз(а)

Яндекс.Метрика powered by Sphinx


В Н И М А Н И Е
Сайт не распространяет и не хранит электронные версии произведений, а лишь бесплатно и без коммерческой выгоды (не требуя взамен платы,
SMS и т.д.) предоставляет доступ к создаваемому пользователями каталогу ссылок на торрент-файлы, которые содержат только списки хеш-сумм.
Убедительная просьба с жалобами обращаться напрямую к пользователю, разместившему торрент файл.

Вверх