Loading...
Error

Клянёмся защищать (1-8 серии из 8) (Вячеслав Никифоров) [2014 г., детектив, криминал, SatRip]

Статистика раздачи
Размер:  4,24 GB   |    Зарегистрирован:  2 года 6 месяцев   |    Скачан:  49 раз

Полного источника не было: 3 месяца 9 дней

Сидов:  0  |  0 KB/s  ]   Личеров:  0  |  0 KB/s  ]

* - сиды/пиры с внешних источников

   
 
Автор Сообщение

nemos Пол:Муж

29-Май-2014 20:58

Клянемся защищать


Год выпуска: 2014
Жанр: детектив, криминал
Страна: Россия , Беларусь , ООО "Форум"
Режиссер: Вячеслав Никифоров
В ролях: Кирилл Плетнёв, Родион Нахапетов, Дмитрий Исаев, Агния Дитковските, Антон Пампушный, Денис Бургазлиев, Анна Казючиц, Татьяна Казючиц
Сюжет фильма:
В районе, который курирует майор Началов, действует подпольная лаборатория по производству метамфетамина. От "паленого" наркотика умирают люди. Курсанты высшего учебного заведения МВД - Харламов, Кречетов, Царев и Ушаков заканчивают обучение, осталось несколько дней до диплома. У Жени Кречетова – бурный роман с дочерью Началова, Надеждой. Курсант Харламов допускает конфликт с руководством, в результате чего оказывается под угрозой отчисления. Майор Началов на свой страх и риск берет курсантов к себе в новый отдел, убивая двух зайцев – спасает парней от неприятностей и получает новых, не засвеченных и не коррумпированных работников.
Качество видео: SatRip

Продолжительность: 00:40:29 серия
Формат: AVI
Видео: XviD, 720x400, 1705 kbps
Аудио: русский, AC3 2.0, 192 kbps

Код:

D:\Фильмы (роздача)\Klyanemsya.zaschischat.2014.SATRip.MediaClub\Klyanemsya.zaschischat.(01.seriya.iz.08).2014.SATRip.MediaClub.avi
   General
      Complete name : D:\Фильмы (роздача)\Klyanemsya.zaschischat.2014.SATRip.MediaClub\Klyanemsya.zaschischat.(01.seriya.iz.08).2014.SATRip.MediaClub.avi
      Format : AVI
      Format/Info : Audio Video Interleave
      File size : 552 MiB
      Duration : 40mn 29s
      Overall bit rate : 1 907 Kbps
      Writing application : VirtualDubMod 1.5.10.3 | www.virtualdub-fr.org || (build 2550/release)
      Writing library : Boilsoft AVI tool build 1/release
   Video #0
      ID : 0
      Format : MPEG-4 Visual
      Format profile : Advanced Simple@L5
      Format settings, BVOP : 1
      Format settings, QPel : No
      Format settings, GMC : No warppoints
      Format settings, Matrix : Custom
      Codec ID : XVID
      Codec ID/Hint : XviD
      Duration : 40mn 29s
      Bit rate : 1 705 Kbps
      Width : 720 pixels
      Height : 400 pixels
      Display aspect ratio : 16:9
      Frame rate : 25.000 fps
      Color space : YUV
      Chroma subsampling : 4:2:0
      Bit depth : 8 bits
      Scan type : Progressive
      Compression mode : Lossy
      Bits/(Pixel*Frame) : 0.237
      Stream size : 494 MiB (89%)
      Writing library : XviD 73
   Audio #1
      ID : 1
      Format : AC-3
      Format/Info : Audio Coding 3
      Mode extension : CM (complete main)
      Format settings, Endianness : Big
      Codec ID : 2000
      Duration : 40mn 29s
      Bit rate mode : Constant
      Bit rate : 192 Kbps
      Channel(s) : 2 channels
      Channel positions : Front: L R
      Sampling rate : 48.0 KHz
      Bit depth : 16 bits
      Compression mode : Lossy
      Stream size : 55.6 MiB (10%)
      Alignment : Split accross interleaves
      Interleave, duration : 40 ms (1.00 video frame)
      Interleave, preload duration : 500 ms
picpicpicpicpicpic
Для увеличения картинки щелкните мышкой по превью

Этот торрент недоступен для скачивания без регистрации, однако доступен по публичной magnet-ссылке (источники с публичных трекеров). Перед использованием ссылки прочтите, пожалуйста Пользовательское соглашение, а также как можно дольше оставайтесь на раздаче! Для того, чтобы скачать сам торрент-файл (который видит больше источников), а также для того, чтобы поблагодарить релизера, вам необходимо зарегистрироваться. Если регистрироваться лень - вы можете также попробовать скачать релиз по нашим партнерским ссылкам ниже.

[underverse.su].t40577.torrent
Трекер: Зарегистрирован   [ 30.05.2014 15:47 ]  

Статус: проверено (by Паукан at 05.06.2014 04:10)
Поблагодарили: 5 человек
Тип торрента: публичный - доступные источники с открытых трекеров: 
Размер: 4,24 GB (занимает 0,97 DVDR, для записи нужно 1 болванка DVDR/RW)
 
 


Последний раз редактировалось: nemos (06.11.2014 07:56), всего редактировалось 2 раз(а)

nemos Пол:Муж

29-Май-2014 20:59

На кинопоиске сериала пока нет.

nemos Пол:Муж

30-Май-2014 15:48

Торр файл обновлён! 8 серий.

Яндекс.Метрика powered by Sphinx


В Н И М А Н И Е
Сайт не распространяет и не хранит электронные версии произведений, а лишь бесплатно и без коммерческой выгоды (не требуя взамен платы,
SMS и т.д.) предоставляет доступ к создаваемому пользователями каталогу ссылок на торрент-файлы, которые содержат только списки хеш-сумм.
Убедительная просьба с жалобами обращаться напрямую к пользователю, разместившему торрент файл.

Вверх