Loading...
Error

На рубеже. Ответный удар (4 серии из 4) (Алексей Молочник) [2014 г., боевик, приключения, SatRip]

Статистика раздачи
Размер:  2,13 GB   |    Зарегистрирован:  2 года 6 месяцев   |    Скачан:  43 раза

Полного источника не было: 18 дней

Сидов:  0  |  0 KB/s  ]   Личеров:  0  |  0 KB/s  ]

* - сиды/пиры с внешних источников

   
 
Автор Сообщение

nemos Пол:Муж

25-Май-2014 20:12

На рубеже. Ответный удар


Год выпуска: 2014
Жанр: боевик, приключения
Страна: Россия
Режиссер: Алексей Молочник
В ролях: Андрей Федорцов, Максим Павлов, Родион Галюченко, Николай Чиндяйкин, Роман Курцын, Керим Магомедов, Антон Юрьев, Игорь Ботвин, Игорь Михайлов
Сюжет фильма:
Молодой капитан-пограничник Тимофей Смолин во время службы на Северном Кавказе был ранен, а после лечения получил назначение в «спокойный» регион — на северо-западную государственную границу. Несмотря на теплый прием со стороны нового начальника — майора Зимина, Тимофей не спешит радоваться переводу на тихую заставу. Будучи офицером по призванию, Смолин уверен, что его опыт гораздо нужнее на старом месте. Привыкший к реальным угрозам и постоянному риску, он относится к работе очень серьезно, даже ревностно, что сразу привлекает внимание его коллег. Однако довольно быстро выясняется, что и здесь есть место настоящему подвигу...
Качество видео: SatRip

Продолжительность: 00:39:23 серия
Формат: AVI
Видео: XviD, 720x416, 1800 kbps
Аудио: русский, MP3 2.0, 128 kbps

Код:

D:\Фильмы (роздача)\Na.rubezhe.2014.SATRip.NNM-CLUB\4.serija.avi
   General
      Complete name : D:\Фильмы (роздача)\Na.rubezhe.2014.SATRip.NNM-CLUB\4.serija.avi
      Format : AVI
      Format/Info : Audio Video Interleave
      File size : 546 MiB
      Duration : 39mn 23s
      Overall bit rate : 1 938 Kbps
      Writing application : VirtualDubMod 1.5.10.3 | www.virtualdub-fr.org || (build 2550/release)
      Writing library : VirtualDubMod build 2550/release
   Video #0
      ID : 0
      Format : MPEG-4 Visual
      Format profile : Advanced Simple@L5
      Format settings, BVOP : 2
      Format settings, QPel : No
      Format settings, GMC : No warppoints
      Format settings, Matrix : Default (MPEG)
      Codec ID : XVID
      Codec ID/Hint : XviD
      Duration : 39mn 23s
      Bit rate : 1 800 Kbps
      Width : 720 pixels
      Height : 416 pixels
      Display aspect ratio : 1.731
      Frame rate : 25.000 fps
      Color space : YUV
      Chroma subsampling : 4:2:0
      Bit depth : 8 bits
      Scan type : Progressive
      Compression mode : Lossy
      Bits/(Pixel*Frame) : 0.240
      Stream size : 507 MiB (93%)
      Writing library : XviD 1.2.1 (UTC 2008-12-04)
   Audio #1
      ID : 1
      Format : MPEG Audio
      Format version : Version 1
      Format profile : Layer 3
      Mode : Joint stereo
      Codec ID : 55
      Codec ID/Hint : MP3
      Duration : 39mn 23s
      Bit rate mode : Constant
      Bit rate : 128 Kbps
      Channel(s) : 2 channels
      Sampling rate : 48.0 KHz
      Compression mode : Lossy
      Stream size : 36.1 MiB (7%)
      Alignment : Aligned on interleaves
      Interleave, duration : 40 ms (1.00 video frame)
      Interleave, preload duration : 504 ms
      Writing library : LAME3.99r
      Encoding settings : -m j -V 4 -q 2 -lowpass 17 -b 128
picpicpicpicpicpicpicpicpicpicpic
Для увеличения картинки щелкните мышкой по превью

Этот торрент недоступен для скачивания без регистрации, однако доступен по публичной magnet-ссылке (источники с публичных трекеров). Перед использованием ссылки прочтите, пожалуйста Пользовательское соглашение, а также как можно дольше оставайтесь на раздаче! Для того, чтобы скачать сам торрент-файл (который видит больше источников), а также для того, чтобы поблагодарить релизера, вам необходимо зарегистрироваться. Если регистрироваться лень - вы можете также попробовать скачать релиз по нашим партнерским ссылкам ниже.

[underverse.su].t40422.torrent
Трекер: Зарегистрирован   [ 25.05.2014 20:12 ]  

Статус: проверено (by Паукан at 26.05.2014 04:08)
Поблагодарили: 3 человека
Тип торрента: публичный - доступные источники с открытых трекеров: 
Размер: 2,13 GB (занимает 0,49 DVDR, для записи нужно 1 болванка DVDR/RW)
 
 

Яндекс.Метрика powered by Sphinx


В Н И М А Н И Е
Сайт не распространяет и не хранит электронные версии произведений, а лишь бесплатно и без коммерческой выгоды (не требуя взамен платы,
SMS и т.д.) предоставляет доступ к создаваемому пользователями каталогу ссылок на торрент-файлы, которые содержат только списки хеш-сумм.
Убедительная просьба с жалобами обращаться напрямую к пользователю, разместившему торрент файл.

Вверх