Loading...
Error

Робокоп / Robocop (Жозе Падилья) [2014 г., фантастика, боевик, криминал, BDRip] Dub (Rus,Ukr) + Original + Sub (Rus,Ukr,Eng) HQ Underverse

Статистика раздачи
Размер:  2,17 GB   |    Зарегистрирован:  2 года 6 месяцев   |    Скачан:  165 раз

Полного источника не было: 2 месяца 23 дня

Сидов:  0  |  0 KB/s  ]   Личеров:  0  |  0 KB/s  ]

* - сиды/пиры с внешних источников

   
 
Автор Сообщение

HQ Underverse 

23-Май-2014 08:32

Робокоп / Robocop


Год выпуска: 2014
Жанр: фантастика, боевик, криминал
Страна: США
Режиссер: Жозе Падилья
В ролях: Юэль Киннаман, Гари Олдман, Майкл Китон, Эбби Корниш, Джей Барушель, Сэмюэл Л. Джексон, Айми Гарсиа, Дженнифер Или, Джеки Эрл Хейли, Майкл К. Уильямс
Сюжет фильма:
Алекс Мерфи, любящий муж, отец и хороший полицейский, борется с лавиной преступности и коррупции, обрушившейся на Детройт. Его, тяжело раненного при исполнении служебных обязанностей, OmniCorp решает задействовать в своем робототехническом эксперименте, чтобы спасти герою жизнь. Алекс возвращается на улицы города, имея в багаже новые способности, но задаваясь вопросами, с которыми человеку никогда ранее не приходилось сталкиваться.

  • Мировая премьера: 30 января 2014
  • Российская премьера: 13 февраля 2014, «WDSSPR»

/
Качество видео: BDRip

Продолжительность: 01:57:29
Формат: avi
Видео: XviD, 720x304, 2185 kbps
Аудио #1: русский, дублированный [лицензия], AC3 5.1, 448 kbps
Аудио #2: английский, оригинал, AC3 5.1, 448 kbps (отдельным файлом: здесь)
Аудио #3: украинский, дублированный, AC3 5.1, 448 kbps (отдельным файлом: здесь)
Субтитры #1: внешние, SRT, русский
Субтитры #2: внешние, SRT, английский
Субтитры #3: внешние, SRT, украинский

Код:

General
Complete name                    : Z:\windoza-share\Робокоп\Robocop.2014.BDRip.XviD.AC3.Rus.D.HQ.Underverse.avi
Format                           : AVI
Format/Info                      : Audio Video Interleave
Format profile                   : OpenDML
File size                        : 2.17 GiB
Duration                         : 1h 57mn
Overall bit rate                 : 2 646 Kbps
Writing application              : VirtualDubMod 1.5.10.2 (build 2542/release)
Writing library                  : VirtualDubMod build 2542/release

Video
ID                               : 0
Format                           : MPEG-4 Visual
Format profile                   : Streaming Video@L1
Format settings, BVOP            : Yes
Format settings, QPel            : No
Format settings, GMC             : No warppoints
Format settings, Matrix          : Custom
Muxing mode                      : Packed bitstream
Codec ID                         : XVID
Codec ID/Hint                    : XviD
Duration                         : 1h 57mn
Bit rate                         : 2 186 Kbps
Width                            : 720 pixels
Height                           : 304 pixels
Display aspect ratio             : 2.35
Frame rate                       : 23.976 fps
Resolution                       : 24 bits
Colorimetry                      : 4:2:0
Scan type                        : Progressive
Bits/(Pixel*Frame)               : 0.416
Stream size                      : 1.79 GiB (83%)
Writing library                  : XviD 64

Audio
ID                               : 1
Format                           : AC-3
Format/Info                      : Audio Coding 3
Codec ID                         : 2000
Duration                         : 1h 57mn
Bit rate mode                    : Constant
Bit rate                         : 448 Kbps
Channel(s)                       : 6 channels
Channel positions                : Front: L C R, Surround: L R, LFE
Sampling rate                    : 48.0 KHz
Stream size                      : 376 MiB (17%)
Alignment                        : Split accross interleaves
Interleave, duration             : 42 ms (1.00 video frame)
Interleave, preload duration     : 500 ms

General
Complete name                    : Z:\windoza-share\Робокоп\Robocop.2014.BDRip.XviD.AC3.Rus.D.HQ.Underverse.UKR.ac3
Format                           : AC-3
Format/Info                      : Audio Coding 3
File size                        : 376 MiB
Duration                         : 1h 57mn
Overall bit rate                 : 448 Kbps

Audio
Format                           : AC-3
Format/Info                      : Audio Coding 3
Duration                         : 1h 57mn
Bit rate mode                    : Constant
Bit rate                         : 448 Kbps
Channel(s)                       : 6 channels
Channel positions                : Front: L C R, Surround: L R, LFE
Sampling rate                    : 48.0 KHz
Stream size                      : 376 MiB (100%)

General
Complete name                    : Z:\windoza-share\Робокоп\Robocop.2014.BDRip.XviD.AC3.Rus.D.HQ.Underverse.ENG.ac3
Format                           : AC-3
Format/Info                      : Audio Coding 3
File size                        : 376 MiB
Duration                         : 1h 57mn
Overall bit rate                 : 448 Kbps

Audio
Format                           : AC-3
Format/Info                      : Audio Coding 3
Duration                         : 1h 57mn
Bit rate mode                    : Constant
Bit rate                         : 448 Kbps
Channel(s)                       : 6 channels
Channel positions                : Front: L C R, Surround: L R, LFE
Sampling rate                    : 48.0 KHz
Stream size                      : 376 MiB (100%)

Релиз группы:

picpicpic
Для увеличения картинки щелкните мышкой по превью

Этот торрент недоступен для скачивания без регистрации, однако доступен по публичной magnet-ссылке (источники с публичных трекеров). Перед использованием ссылки прочтите, пожалуйста Пользовательское соглашение, а также как можно дольше оставайтесь на раздаче! Для того, чтобы скачать сам торрент-файл (который видит больше источников), а также для того, чтобы поблагодарить релизера, вам необходимо зарегистрироваться. Если регистрироваться лень - вы можете также попробовать скачать релиз по нашим партнерским ссылкам ниже.

[underverse.su].t40387.torrent
Трекер: Зарегистрирован   [ 23.05.2014 08:32 ]  

Статус: проверено (by HQ Underverse at 23.05.2014 08:32)
Поблагодарили: 9 человек
Тип торрента: публичный - доступные источники с открытых трекеров: 
Размер: 2,17 GB (занимает 1/2 DVDR, для записи нужно 1 болванка DVDR/RW)
 
 
Похожие темы
Форум Тема Автор Торрент Отв. Посл. сооб.
Зарубежное кино [DVDRip, Low-Res HDRip, и т.д.] Робокоп / RoboCop [Remastered Theatrical Cut] (Пол Верховен) [1987 г., фантастика, боевик, триллер, BDRip-AVC] MVO + DVO + AVO + Original garry
5 | 2

0 | 1141

8

28.01.2013 09:41

Зарубежное кино [DVDRip, Low-Res HDRip, и т.д.] Робокоп / RoboCop [Remastered Director's Cut] (Пол Верховен / Paul Verhoeven) [1987 г., фантастика, боевик, криминал, BDRip] MVO + Original garry
3 | 0

0 | 716

24

04.02.2014 17:49

T Зарубежное кино [DVDRip, Low-Res HDRip, и т.д.] РобоКоп / RoboCop (Жозе Падилья) [2014 г., фантастика, боевик, криминал, WEB-DLRip] Dub (чистый звук) 90ytr90
0 | 0

0 | 2064

82

03.05.2014 08:53

T Зарубежное кино [DVDRip, Low-Res HDRip, и т.д.] РобоКоп / RoboCop (Жозе Падилья) [2014 г., фантастика, боевик, криминал, WEB-DLRip] Dub (чистый звук) + Original (Eng) 90ytr90
19 | 0

0 | 1879

14

03.05.2014 08:59

T Зарубежное кино [DVDRip, Low-Res HDRip, и т.д.] РобоКоп / RoboCop (Жозе Падилья) [2014 г., фантастика, боевик, криминал, WEB-DLRip] Dub (iTunes) 90ytr90
0 | 0

0 | 2242

11

06.05.2014 04:12

T Зарубежное кино [DVDRip, Low-Res HDRip, и т.д.] РобоКоп / RoboCop (Жозе Падилья) [2014 г., фантастика, боевик, криминал, WEB-DLRip] Dub (iTunes) + Original (Eng) 90ytr90
47 | 1

0 | 2188

10

06.05.2014 04:17

T Зарубежное кино [DVDRip, Low-Res HDRip, и т.д.] РобоКоп / RoboCop (Жозе Падилья) [2014 г., фантастика, боевик, криминал, WEB-DLRip] Dub (iTunes) 90ytr90
15 | 0

0 | 2282

10

06.05.2014 04:29

Зарубежное кино [DVDRip, Low-Res HDRip, и т.д.] РобоКоп / RoboCop (Жозе Падилья) [2014 г., фантастика, боевик, криминал, HDRip] AVO [Гаврилов] Паукан
1 | 0

0 | 1210

30

07.07.2014 10:10

Зарубежное кино [DVD / HDDVD / BD / Remux] Робокоп / Робот-полицейский / RoboCop (Пол Верховен / Paul Verhoeven) [1987, фантастика, боевик, криминал, Blu-ray disc] [Remastered Director's Cut] MVO + Sub Rus, Eng + Original Eng uzi2009
3 | 1

1 | 1773

2

17.02.2014 00:40

T Зарубежное кино [HDDVDRip / BDRip / WEB-DL / HDTV 1080/720р] РобоКоп / RoboCop (Жозе Падилья) [2014 г., фантастика, боевик, криминал, WEB-DL 720p] Dub (чистый звук) + Original (Eng) 90ytr90
0 | 0

0 | 552

30

03.05.2014 09:08


Яндекс.Метрика powered by Sphinx


В Н И М А Н И Е
Сайт не распространяет и не хранит электронные версии произведений, а лишь бесплатно и без коммерческой выгоды (не требуя взамен платы,
SMS и т.д.) предоставляет доступ к создаваемому пользователями каталогу ссылок на торрент-файлы, которые содержат только списки хеш-сумм.
Убедительная просьба с жалобами обращаться напрямую к пользователю, разместившему торрент файл.

Вверх