Loading...
Error

(Шансон, Pop) Григорий Лепс - Избранное... 10 лет (2005) [FLAC (Image+.CUE), Lossless]

Статистика раздачи
Размер:  583 MB   |    Зарегистрирован:  4 года 4 месяца   |    Скачан:  25 раз

Полного источника не было: 10 месяцев

Сидов:  0  |  0 KB/s  ]   Личеров:  0  |  0 KB/s  ]

* - сиды/пиры с внешних источников

   
 
Автор Сообщение

Бишеп Пол:Муж

22-Май-2014 19:36

Григорий Лепс - Избранное... 10 лет

Жанр: Шансон, Pop
Год выпуска: 2005
Производитель диска: Moon Records MR 1078-2
Аудиокодек: FLAC
Тип рипа: Image+.CUE
Битрейт аудио: Lossless
Продолжительность: 01:18:58
Треклист:
01. Я слушал дождь (Live)
02. Летай
03. Ну и что (Radio Edit)
04. В городе дождь
05. Натали
06. Танго разбитых сердец
07. На струнах дождя
08. Я верю, я дождусь
09. Купола
10. Парус
11. Чистые пруды (Remaster 2005)
12. Рюмка водки на столе
13. Крыса-ревность
14. Спокойной ночи, господа
15. Шелест
16. Ангел завтрашнего дня
17. Раздумья мои

Exact Audio Copy V1.0 beta 3 from 29. August 2011

EAC extraction logfile from 12. April 2012, 13:34

Григорий Лепс / Избранное... 10 лет

Used drive : TSSTcorpCDDVDW SH-S222L Adapter: 4 ID: 0

Read mode : Secure
Utilize accurate stream : Yes
Defeat audio cache : Yes
Make use of C2 pointers : No

Read offset correction : 6
Overread into Lead-In and Lead-Out : No
Fill up missing offset samples with silence : Yes
Delete leading and trailing silent blocks : No
Null samples used in CRC calculations : Yes
Used interface : Native Win32 interface for Win NT & 2000

Used output format : User Defined Encoder
Selected bitrate : 896 kBit/s
Quality : High
Add ID3 tag : No
Command line compressor : C:\Program Files\Exact Audio Copy\Flac\flac.exe
Additional command line options : -V -8 -T "Genre=%genre%" -T "Artist=%artist%" -T "Title=%title%" -T "Album=%albumtitle%" -T "Date=%year%" -T "Tracknumber=%tracknr%" -T "Comment=%comment%" %source%

TOC of the extracted CD

Track | Start | Length | Start sector | End sector
---------------------------------------------------------
1 | 0:00.00 | 5:56.01 | 0 | 26700
2 | 5:56.01 | 3:40.00 | 26701 | 43200
3 | 9:36.01 | 5:00.00 | 43201 | 65700
4 | 14:36.01 | 5:32.00 | 65701 | 90600
5 | 20:08.01 | 4:46.00 | 90601 | 112050
6 | 24:54.01 | 3:46.00 | 112051 | 129000
7 | 28:40.01 | 5:52.04 | 129001 | 155404
8 | 34:32.05 | 3:40.00 | 155405 | 171904
9 | 38:12.05 | 6:40.00 | 171905 | 201904
10 | 44:52.05 | 3:02.00 | 201905 | 215554
11 | 47:54.05 | 5:00.00 | 215555 | 238054
12 | 52:54.05 | 4:16.00 | 238055 | 257254
13 | 57:10.05 | 4:02.00 | 257255 | 275404
14 | 61:12.05 | 5:28.00 | 275405 | 300004
15 | 66:40.05 | 3:16.00 | 300005 | 314704
16 | 69:56.05 | 4:47.21 | 314705 | 336250
17 | 74:43.26 | 4:14.62 | 336251 | 355362

Range status and errors

Selected range

Filename D:\Temp\Григорий Лепс - Избранное... 10 лет\Григорий Лепс - Избранное... 10 лет.wav

Peak level 100.0 %
Extraction speed 7.9 X
Range quality 99.9 %
Test CRC 32EE8495
Copy CRC 32EE8495
Copy OK

No errors occurred

AccurateRip summary
Track 1 not present in database
Track 2 not present in database
Track 3 not present in database
Track 4 not present in database
Track 5 not present in database
Track 6 not present in database
Track 7 not present in database
Track 8 not present in database
Track 9 not present in database
Track 10 not present in database
Track 11 not present in database
Track 12 not present in database
Track 13 not present in database
Track 14 not present in database
Track 15 not present in database
Track 16 not present in database
Track 17 not present in database
None of the tracks are present in the AccurateRip database

End of status report

==== Log checksum ECF7381AE78A03C3BC220BFC87917EF2C70F91587D42CE9C037BF42B89DC22E5 ====

-----------------------

DON'T MODIFY THIS FILE

-----------------------

PERFORMER: auCDtect Task Manager, ver. 1.0.1 RC1 build 1.0.1.1
Copyright (c) 2008, 2009 y-soft. All rights reserved
http://y-soft.110mb.com

ANALYZER: auCDtect: CD records authenticity detector, version 0.8.2
Copyright (c) 2004 Oleg Berngardt. All rights reserved.
Copyright (c) 2004 Alexander Djourik. All rights reserved.

FILE: Григорий Лепс - Избранное... 10 лет - (2005).flac
Size: 596874920 Hash: 7730B42650577D9FD27C26E2A78C1156 Accuracy: -m0
Conclusion: CDDA 100%
Signature: CE3DF3625D5E0F2383886D6C7D608E86E56F61F8

pic
Для увеличения картинки щелкните мышкой по превью

Этот торрент недоступен для скачивания без регистрации, однако доступен по публичной magnet-ссылке (источники с публичных трекеров). Перед использованием ссылки прочтите, пожалуйста Пользовательское соглашение, а также как можно дольше оставайтесь на раздаче! Для того, чтобы скачать сам торрент-файл (который видит больше источников), а также для того, чтобы поблагодарить релизера, вам необходимо зарегистрироваться. Если регистрироваться лень - вы можете также попробовать скачать релиз по нашим партнерским ссылкам ниже. Кроме того, зарегистрированным пользователям не показывается всплывающая реклама при скачивании.

[underverse.su].t40380.torrent
Трекер: Зарегистрирован   [ 22.05.2014 19:36 ]  

Статус: проверено (by Бишеп at 22.05.2014 19:37)
Поблагодарили: 1 человек
Тип торрента: публичный - доступные источники с открытых трекеров: 
Размер: 583 MB (занимает 0,13 DVDR, для записи нужно 1 болванка DVDR/RW)
 
 
Похожие темы
Форум Тема Автор Торрент Отв. Посл. сооб.
Шансон (Шансон, Pop) Рада Рай - Радуюсь (2010) [MP3, 320 kbps CBR] Sheamus666
0 | 0

0 | 808

4

13.08.2016 16:42

Шансон (Lossless) (Шансон, Pop) Яхонт - Чёрный ворон (Переиздание) (2003) [FLAC (Image+.CUE) Lossless] Бишеп
1 | 0

0 | 1025

6

06.05.2014 06:18

Шансон (Lossless) (Шансон, Pop) Александр Дюмин - Не жалею, не зову, не плачу (2012) [FLAC (Image+.CUE), Lossless] Бишеп
2 | 0

0 | 1866

8

22.05.2014 17:51


Яндекс.Метрика powered by Sphinx


В Н И М А Н И Е
Сайт не распространяет и не хранит электронные версии произведений, а лишь бесплатно и без коммерческой выгоды (не требуя взамен платы,
SMS и т.д.) предоставляет доступ к создаваемому пользователями каталогу ссылок на торрент-файлы, которые содержат только списки хеш-сумм.
Убедительная просьба с жалобами обращаться напрямую к пользователю, разместившему торрент файл.

Вверх