Loading...
Error

Марина / Marina (Стиин Конинкс) [2013 г., биография, HDRip] VO

Статистика раздачи
Размер:  1,46 GB   |    Зарегистрирован:  2 года 6 месяцев   |    Скачан:  12 раз

Полного источника не было: 9 месяцев

Сидов:  0  |  0 KB/s  ]   Личеров:  0  |  0 KB/s  ]

* - сиды/пиры с внешних источников

   
 
Автор Сообщение

Паукан Пол:Муж

19-Май-2014 06:11

Марина / Marina (2013) HDRip

Год выпуска: 2013
Производство: Бельгия
Жанр: Биография
Перевод: Одноголосый закадровый, любительский
Озвучка / Автор перевода: Pashaup
Субтитры: Отсутствуют

Дата мировой премьеры: 23 августа 2013

Режиссер: Стиин Конинкс
Актеры: Маттео Симони, Эвелин Босманс, Луиджи Ло Кашио, Донателла Финокьяро, Варре Боргманс, Крис ван ден Дюрпел, Рокко Граната

Описание фильма:
10-летний мальчик покидает итальянский регион, Калабрию, чтобы отправиться вслед за отцом в далекую и холодную Бельгию в поисках лучшей жизни. Фильм рассказывает удивительную историю маленького мальчика на фоне миграции итальянцев в Бельгию в 50-х годах.

Сэмпл

Продолжительность: 02:02:55
Качество видео: HDRip

Видеокодек: Xvid
Битрейт видео: ~1238 Kbit/s
Размер кадра: 720 x 304
Аудиокодек: AC3 5.1
Битрейт аудио: 448 Kbit/s

Код:

Общее
Полное имя                       : D:\Торренты\Марина .2013.HDRip.avi
Формат                           : AVI
Формат/Информация                : Audio Video Interleave
Размер файла                     : 1,46 Гбайт
Продолжительность                : 2 ч. 2 м.
Общий поток                      : 1696 Кбит/сек
Программа кодирования            : VirtualDubMod 1.5.10.3 (build 2550/release)
Библиотека кодирования           : VirtualDubMod build 2550/release

Видео
Идентификатор                    : 0
Формат                           : MPEG-4 Visual
Профиль формата                  : Advanced Simple@L5
Параметр BVOP формата            : 1
Параметр QPel формата            : Нет
Параметр GMC формата             : Без точки перехода
Параметр матрицы формата         : Выборочная
Идентификатор кодека             : XVID
Идентификатор кодека/Подсказка   : XviD
Продолжительность                : 2 ч. 2 м.
Битрейт                          : 1238 Кбит/сек
Ширина                           : 720 пикс.
Высота                           : 304 пикс.
Соотношение сторон               : 2,35:1
Частота кадров                   : 23,976 кадр/сек
Цветовое пространство            : YUV
Подвыборка цветности             : 4:2:0
Битовая глубина                  : 8 бит
Тип развёртки                    : Прогрессивная
Метод сжатия                     : С потерями
Бит/(Пиксели*Кадры)              : 0.236
Размер потока                    : 1,06 Гбайт (73%)
Библиотека кодирования           : XviD 1.2.1 (UTC 2008-12-04)

Аудио
Идентификатор                    : 1
Формат                           : AC-3
Формат/Информация                : Audio Coding 3
Расширение режима                : CM (complete main)
Идентификатор кодека             : 2000
Продолжительность                : 2 ч. 2 м.
Вид битрейта                     : Постоянный
Битрейт                          : 448 Кбит/сек
Каналы                           : 6 каналов
Расположение каналов             : Front: L C R, Side: L R, LFE
Частота                          : 48,0 КГц
Битовая глубина                  : 16 бит
Метод сжатия                     : С потерями
Размер потока                    : 394 Мбайт (26%)
Выравнивание                     : Разделение по промежуткам
Продолжительность промежутка     : 42  мс. (1,00 видеокадр)
Время предзагрузки промежутка    : 500 ms

pic pic pic
Для увеличения картинки щелкните мышкой по превью

Этот торрент недоступен для скачивания без регистрации, однако доступен по публичной magnet-ссылке (источники с публичных трекеров). Перед использованием ссылки прочтите, пожалуйста Пользовательское соглашение, а также как можно дольше оставайтесь на раздаче! Для того, чтобы скачать сам торрент-файл (который видит больше источников), а также для того, чтобы поблагодарить релизера, вам необходимо зарегистрироваться. Если регистрироваться лень - вы можете также попробовать скачать релиз по нашим партнерским ссылкам ниже.

[underverse.su].t40258.torrent
Трекер: Зарегистрирован   [ 19.05.2014 06:11 ]  

Статус: проверено (by Паукан at 19.05.2014 06:11)
Поблагодарили: пока никто не поблагодарил...
Тип торрента: публичный - доступные источники с открытых трекеров: 
Размер: 1,46 GB (занимает 1/3 DVDR, для записи нужно 1 болванка DVDR/RW)
 
 

Яндекс.Метрика powered by Sphinx


В Н И М А Н И Е
Сайт не распространяет и не хранит электронные версии произведений, а лишь бесплатно и без коммерческой выгоды (не требуя взамен платы,
SMS и т.д.) предоставляет доступ к создаваемому пользователями каталогу ссылок на торрент-файлы, которые содержат только списки хеш-сумм.
Убедительная просьба с жалобами обращаться напрямую к пользователю, разместившему торрент файл.

Вверх