Loading...
Error

Помпеи / Pompeii (Пол У. С. Андерсон) [2014 г., приключения, боевик, драма, мелодрама, HDRip] Dub [Лицензия] + Original

Статистика раздачи
Размер:  2,05 GB   |    Зарегистрирован:  2 года 6 месяцев   |    Скачан:  54 раза

Полного источника не было: 4 месяца 1 день

Сидов:  0  |  0 KB/s  ]   Личеров:  0  |  0 KB/s  ]

* - сиды/пиры с внешних источников

   
 
Автор Сообщение

Паукан Пол:Муж

19-Май-2014 06:03

Помпеи / Pompeii (2014) HDRip
«Некоторые истории пишутся кровью»

Год выпуска: 2014
Производство: Канада, Германия
Жанр: Боевик, Драма, Мелодрама

Режиссер: Пол У. С. Андерсон
Актеры: Саша Ройз, Кэрри-Энн Мосс, Адевале Акинойе-Агбаже, Эмили Браунинг, Джессика Лукас, Кифер Сазерленд, Кит Харингтон, Джо Пинг, Джаред Харрис, Карри Грэм

Описание фильма:
История любви раба Майло и благородной Кассии, обрученной с римским сенатором, на фоне извержения Везувия, которое навсегда стерло с лица земли древнеримский город Помпеи…

Перевод: Дублированный (Лицензия USA Transfer)
Субтитры: Отсутствуют

Сэмпл

Дата мировой премьеры: 18 февраля 2014
Дата российской премьеры: 19 февраля 2014, «Парадиз»
Дата выхода DVD релиза: 20 мая 2014, «Парадиз / Активижен»
Дата выхода Blu-Ray релиза: 20 мая 2014, «Парадиз / Активижен»

Рейтинг MPAA: PG-13 (детям до 13 лет просмотр не желателен)
Возраст: 12+

Продолжительность: 01:44:26
Качество видео: HDRip

Видеокодек: Xvid
Битрейт видео: ~1900 Кбит/сек
Размер кадра: 720x304, 23,976 fps
Aудио #1: AC3, 48.0 KHz, 6 ch, 448 Kbps, CBR (Русский, Дубляж)
Aудио #2: AC3, 48.0 KHz, 6 ch, 448 Kbps, CBR (Английский)
• Для съемок крупномасштабных сцен оператор Глен МакФерсон создал оригинальную конструкцию: он прикрепил камеру к вертолету с дистанционным управлением, который поднимался на высоту свыше 60 метров. Таким образом, создатели получили уникальные кадры, позволяющие зрителю увидеть историю и трагедию Помпей в масштабе места и времени.
• Во время подготовки к съемкам, чтобы как можно более точно воссоздать сцены катастрофы 2000-летней давности, создатели тщательно изучили видеосъемки реальных природных явлений — землетрясений, извержений вулканов, смерчей.
• На ранних стадиях Роман Полански был прикреплен в качестве режиссера к проекту, с Орландо Блумом и Скарлетт Йоханссон в главных ролях.
• Один из крупнейших городов Римской империи Помпеи с его величественными храмами, аренами и банями был воссоздан благодаря грандиозным декорациям. Всего лишь треть антуража фильма сделана с помощью компьютерной графики.
• По словам продюсера Джереми Болта, создатели приложили максимум сил, чтобы сохранить в фильме «Помпеи» историческую правду. Да, основные герои вымышленные, но их образы и имена соответствуют реальным людям того исторического периода. Точное время, хронология и обстоятельства извержения Везувия воссозданы настолько правдиво, насколько это возможно в кино.

Код:

Формат                                   : AVI
Формат/Информация                        : Audio Video Interleave
Размер файла                             : 2,05 Гбайт
Продолжительность                        : 1 ч. 44 м.
Общий поток                              : 2810 Кбит/сек
Название фильма                          : Pompeii (2014)
Программа кодирования                    : VirtualDubMod 1.5.10.2 (build 2540/release)

Видео
Идентификатор                            : 0
Формат                                   : MPEG-4 Visual
Профиль формата                          : Advanced Simple@L5
Параметр BVOP формата                    : 2
Параметр QPel формата                    : Нет
Параметр GMC формата                     : Без точки перехода
Параметр матрицы формата                 : Выборочная
Идентификатор кодека                     : XVID
Идентификатор кодека/Подсказка           : XviD
Продолжительность                        : 1 ч. 44 м.
Битрейт                                  : 1900 Кбит/сек
Ширина                                   : 720 пикселей
Высота                                   : 304 пикселя
Соотношение сторон                       : 2,35:1
Частота кадров                           : 23,976 кадра/сек
Цветовое пространство                    : YUV
Субдискретизация насыщенности            : 4:2:0
Битовая глубина                          : 8 бит
Тип развёртки                            : Прогрессивная
Метод сжатия                             : С потерями
Бит/(Пиксели*Кадры)                      : 0.362
Размер потока                            : 1,39 Гбайт (68%)
Библиотека кодирования                   : XviD 1.2.1 (UTC 2008-12-04)

Аудио #1
Идентификатор                            : 1
Формат                                   : AC-3
Формат/Информация                        : Audio Coding 3
Расширение режима                        : CM (complete main)
Параметр Endianness формата              : Big
Идентификатор кодека                     : 2000
Продолжительность                        : 1 ч. 44 м.
Вид битрейта                             : Постоянный
Битрейт                                  : 448 Кбит/сек
Каналы                                   : 6 каналов
Расположение каналов                     : Front: L C R, Side: L R, LFE
Частота                                  : 48,0 КГц
Битовая глубина                          : 16 бит
Метод сжатия                             : С потерями
Размер потока                            : 334 Мбайт (16%)
Выравнивание                             : Разделение по промежуткам
Продолжительность промежутка             : 42  мс. (1,00 видеокадр)
Время предзагрузки промежутка            : 500  мс.

Аудио #2
Идентификатор                            : 2
Формат                                   : AC-3
Формат/Информация                        : Audio Coding 3
Расширение режима                        : CM (complete main)
Параметр Endianness формата              : Big
Идентификатор кодека                     : 2000
Продолжительность                        : 1 ч. 44 м.
Вид битрейта                             : Постоянный
Битрейт                                  : 448 Кбит/сек
Каналы                                   : 6 каналов
Расположение каналов                     : Front: L C R, Side: L R, LFE
Частота                                  : 48,0 КГц
Битовая глубина                          : 16 бит
Метод сжатия                             : С потерями
Размер потока                            : 334 Мбайт (16%)
Выравнивание                             : Разделение по промежуткам
Продолжительность промежутка             : 42  мс. (1,00 видеокадр)
Время предзагрузки промежутка            : 500  мс.
pic pic pic
Для увеличения картинки щелкните мышкой по превью

Этот торрент недоступен для скачивания без регистрации, однако доступен по публичной magnet-ссылке (источники с публичных трекеров). Перед использованием ссылки прочтите, пожалуйста Пользовательское соглашение, а также как можно дольше оставайтесь на раздаче! Для того, чтобы скачать сам торрент-файл (который видит больше источников), а также для того, чтобы поблагодарить релизера, вам необходимо зарегистрироваться. Если регистрироваться лень - вы можете также попробовать скачать релиз по нашим партнерским ссылкам ниже.

[underverse.su].t40257.torrent
Трекер: Зарегистрирован   [ 19.05.2014 06:03 ]  

Статус: проверено (by Паукан at 19.05.2014 06:03)
Поблагодарили: 3 человека
Тип торрента: публичный - доступные источники с открытых трекеров: 
Размер: 2,05 GB (занимает 0,47 DVDR, для записи нужно 1 болванка DVDR/RW)
 
 
Похожие темы
Форум Тема Автор Торрент Отв. Посл. сооб.
T Зарубежное кино [DVDRip, Low-Res HDRip, и т.д.] Помпеи / Pompeii (Пол У. С. Андерсон / Paul W.S. Anderson) [2014 г., приключения, боевик, драма, мелодрама, BDRip-AVC] Dub (чистый звук) + Original (Eng) + Sub (Eng) 90ytr90
0 | 0

0 | 1796

17

04.05.2014 17:13

Зарубежное кино [DVDRip, Low-Res HDRip, и т.д.] Помпеи / Pompeii (Пол У. С. Андерсон / Paul W.S. Anderson) [2014 г., боевик, драма, мелодрама, приключения, BDRip] Dub Паукан
13 | 0

0 | 674

16

02.09.2014 13:03

Зарубежное кино [DVDRip, Low-Res HDRip, и т.д.] Помпеи / Pompeii (Пол У. С. Андерсон / Paul W.S. Anderson) [2014 г., боевик, драма, мелодрама, приключения, BDRip] Dub Паукан
0 | 0

0 | 781

15

02.09.2014 13:08

Зарубежное кино [HDDVDRip / BDRip / WEB-DL / HDTV 1080/720р] Помпеи / Pompeii (Пол У. С. Андерсон) [2014 г., Боевик, Драма, Приключения BDRip 720p] Dub (Rus) + Original (Eng) + Subs (Rus, Eng) / 60 FPS Ведьмочка
0 | 0

0 | 1064

16

07.07.2014 18:00

Зарубежное кино [HDDVDRip / BDRip / WEB-DL / HDTV 1080/720р] Помпеи / Pompeii (Пол У. С. Андерсон) [2014 г., боевик, драма, мелодрама, приключения, BDRip 1080p] Dub + Original + Sub (Rus,Eng) Паукан
3 | 1

0 | 556

8

02.09.2014 12:58


Яндекс.Метрика powered by Sphinx


В Н И М А Н И Е
Сайт не распространяет и не хранит электронные версии произведений, а лишь бесплатно и без коммерческой выгоды (не требуя взамен платы,
SMS и т.д.) предоставляет доступ к создаваемому пользователями каталогу ссылок на торрент-файлы, которые содержат только списки хеш-сумм.
Убедительная просьба с жалобами обращаться напрямую к пользователю, разместившему торрент файл.

Вверх