Loading...
Error

Уцелевший / Lone Survivor (Питер Берг) [2013 г., военный, боевик, драма, BDRip] Dub + Original + Sub (Rus,Eng) HQ Underverse

Статистика раздачи
Размер:  2,17 GB   |    Зарегистрирован:  2 года 6 месяцев   |    Скачан:  57 раз
Сидов:  1  |  0 KB/s  ]   Личеров:  0  |  0 KB/s  ]

* - сиды/пиры с внешних источников

   
 
Автор Сообщение

HQ Underverse 

16-Май-2014 14:34

Уцелевший / Lone Survivor


Год выпуска: 2013
Жанр: военный, боевик, драма
Страна: США
Режиссер: Питер Берг
В ролях: Марк Уолберг, Тейлор Китч, Эмиль Хирш, Бен Фостер, Юсуф Азами, Али Сулиман, Эрик Бана, Александр Людвиг, Рич Тинг, Дэн Билзериан
Сюжет фильма:
Афганистан, 2005 год. Команда американских спецназовцев получает задание обезвредить известного лидера талибов Ахмада Шаха. Попав в ловушку, солдаты принимают неравный кровопролитный бой, и все они погибают героями. Все, кроме одного. Для уцелевшего Маркуса Латтрела бой только начинается: он любой ценой должен выжить и пробраться к «своим». Когда почти всё потеряно, ему решается помочь Гулаб — мирный человек, ненавидящий войну.

  • Мировая премьера: 12 ноября 2013
  • Российская премьера: 20 февраля 2014, «Люксор»

|
Качество видео: BDRip

Продолжительность: 02:01:20
Формат: avi
Видео: XviD, 720x304, 2099 kbps
Аудио #1: русский, дублированный [лицензия], AC3 5.1, 448 kbps
Аудио #2: английский, оригинал, AC3 5.1, 448 kbps (отдельным файлом: здесь)
Субтитры #1: внешние, SRT, русский
Субтитры #2: внешние, SRT, английский

Код:

General
Complete name                    : Z:\windoza-share\Выживший\Lone.Survivor.2013.BDRip.XviD.AC3.Rus.D.HQ.Underverse.avi
Format                           : AVI
Format/Info                      : Audio Video Interleave
Format profile                   : OpenDML
File size                        : 2.17 GiB
Duration                         : 2h 1mn
Overall bit rate                 : 2 559 Kbps
Writing application              : VirtualDubMod 1.5.10.2 (build 2542/release)
Writing library                  : VirtualDubMod build 2542/release

Video
ID                               : 0
Format                           : MPEG-4 Visual
Format profile                   : Streaming Video@L1
Format settings, BVOP            : Yes
Format settings, QPel            : No
Format settings, GMC             : No warppoints
Format settings, Matrix          : Custom
Muxing mode                      : Packed bitstream
Codec ID                         : XVID
Codec ID/Hint                    : XviD
Duration                         : 2h 1mn
Bit rate                         : 2 100 Kbps
Width                            : 720 pixels
Height                           : 304 pixels
Display aspect ratio             : 2.35
Frame rate                       : 23.976 fps
Resolution                       : 24 bits
Colorimetry                      : 4:2:0
Scan type                        : Progressive
Bits/(Pixel*Frame)               : 0.400
Stream size                      : 1.78 GiB (82%)
Writing library                  : XviD 64

Audio
ID                               : 1
Format                           : AC-3
Format/Info                      : Audio Coding 3
Codec ID                         : 2000
Duration                         : 2h 1mn
Bit rate mode                    : Constant
Bit rate                         : 448 Kbps
Channel(s)                       : 6 channels
Channel positions                : Front: L C R, Surround: L R, LFE
Sampling rate                    : 48.0 KHz
Stream size                      : 389 MiB (18%)
Alignment                        : Split accross interleaves
Interleave, duration             : 42 ms (1.00 video frame)
Interleave, preload duration     : 500 ms

General
Complete name                    : Z:\windoza-share\Выживший\Lone.Survivor.2013.BDRip.XviD.AC3.Rus.D.HQ.Underverse.ENG.ac3
Format                           : AC-3
Format/Info                      : Audio Coding 3
File size                        : 389 MiB
Duration                         : 2h 1mn
Overall bit rate                 : 448 Kbps

Audio
Format                           : AC-3
Format/Info                      : Audio Coding 3
Duration                         : 2h 1mn
Bit rate mode                    : Constant
Bit rate                         : 448 Kbps
Channel(s)                       : 6 channels
Channel positions                : Front: L C R, Surround: L R, LFE
Sampling rate                    : 48.0 KHz
Stream size                      : 389 MiB (100%)

Релиз группы:

picpicpic
Для увеличения картинки щелкните мышкой по превью

Этот торрент недоступен для скачивания без регистрации, однако доступен по публичной magnet-ссылке (источники с публичных трекеров). Перед использованием ссылки прочтите, пожалуйста Пользовательское соглашение, а также как можно дольше оставайтесь на раздаче! Для того, чтобы скачать сам торрент-файл (который видит больше источников), а также для того, чтобы поблагодарить релизера, вам необходимо зарегистрироваться. Если регистрироваться лень - вы можете также попробовать скачать релиз по нашим партнерским ссылкам ниже.

[underverse.su].t40213.torrent
Трекер: Зарегистрирован   [ 16.05.2014 14:34 ]  

Статус: проверено (by HQ Underverse at 16.05.2014 14:35)
Поблагодарили: 4 человека
Тип торрента: публичный - доступные источники с открытых трекеров: 
Размер: 2,17 GB (занимает 1/2 DVDR, для записи нужно 1 болванка DVDR/RW)
 
 
Похожие темы
Форум Тема Автор Торрент Отв. Посл. сооб.
Зарубежное кино [DVDRip, Low-Res HDRip, и т.д.] Уцелевший / Lone Survivor (Питер Берг / Peter Berg) [2013 г., боевик, триллер, драма, военный, BDRip-AVC] Dub + Sub (Rus) 90ytr90
0 | 0

0 | 1576

20

23.03.2014 12:24

Зарубежное кино [DVDRip, Low-Res HDRip, и т.д.] Уцелевший / Lone Survivor (Питер Берг / Peter Berg) [2013 г., боевик, триллер, драма, военный, BDRip] Dub 90ytr90
11 | 2

0 | 1591

46

31.03.2014 20:07

Зарубежное кино [DVDRip, Low-Res HDRip, и т.д.] Уцелевший / Lone Survivor (Питер Берг / Peter Berg) [2013 г., боевик, триллер, драма, военный, BDRip] Dub 90ytr90
4 | 0

0 | 1403

12

31.03.2014 20:08

Зарубежное кино [DVDRip, Low-Res HDRip, и т.д.] Уцелевший / Lone Survivor (Питер Берг / Peter Berg) [2013 г., боевик, триллер, драма, военный, BDRip-AVC] Dub + Original (Eng) + Sub (Rus, Eng) 90ytr90
11 | 0

0 | 1936

68

03.04.2014 15:56

Зарубежное кино [HDDVDRip / BDRip / WEB-DL / HDTV 1080/720р] Уцелевший / Lone Survivor (Питер Берг / Peter Berg) [2013 г., боевик, триллер, драма, военный, BDRip 1080p] Dub 90ytr90
0 | 0

0 | 1628

19

23.03.2014 12:37

Зарубежное кино [HDDVDRip / BDRip / WEB-DL / HDTV 1080/720р] Уцелевший / Lone Survivor (Питер Берг / Peter Berg) [2013 г., боевик, триллер, драма, военный, BDRip 720p] Dub + Original (Eng) + Sub (Rus, Eng) 90ytr90
1 | 1

0 | 1468

21

31.03.2014 20:09


Яндекс.Метрика powered by Sphinx


В Н И М А Н И Е
Сайт не распространяет и не хранит электронные версии произведений, а лишь бесплатно и без коммерческой выгоды (не требуя взамен платы,
SMS и т.д.) предоставляет доступ к создаваемому пользователями каталогу ссылок на торрент-файлы, которые содержат только списки хеш-сумм.
Убедительная просьба с жалобами обращаться напрямую к пользователю, разместившему торрент файл.

Вверх