Loading...
Error

Чаплин / Chaplin & Co / Сезон: 1 / Серии: 74 из 104 (Сирил Адам, Жульен Шарль / Cyril Adam, Julien Charles) [2011, комедия, мультсериал, SATRip]

Статистика раздачи
Размер:  7,3 GB   |    Зарегистрирован:  2 года 6 месяцев   |    Скачан:  2 раза

Полного источника не было: 4 дня

Сидов:  0  |  0 KB/s  ]   Личеров:  0  |  0 KB/s  ]

* - сиды/пиры с внешних источников

   
 
Автор Сообщение

uzi2009 Пол:Муж

13-Май-2014 06:31

Чаплин / Chaplin & Co

Страна: Люксембург / Франция
Жанр: комедия, мультсериал
Продолжительность серии: 00:06:15
Год выпуска: 2011
Перевод: Студийный (одноголосый, закадровый)
* переведены только титры и названия серий. Содержательная часть мультфильма в переводе не нуждается.
Субтитры: отсутствуют
Режиссеры: Сирил Адам, Жульен Шарль / Cyril Adam, Julien Charles
Описание: С тростью и в котелке, Чаплин - маленький застенчивый и неуклюжий человек, одетый во всё черное. Он хоть и немой, но может разговаривать своим сердцем. Каждое незначительное событие в рутине жизни становится великой комедией. Этот сериал - дань уважения Великому Немому - Чарли Чаплину.
(ВикипедиЯ)

Качество: SATRip
Формат: AVI
Видео: 720x400 (1.80:1), 25 fps, XviD build 65 ~1993 kbps avg, 0.28 bit/pixel
Аудио: 48 kHz, AC3 Dolby Digital, 2/0 (L,R) ch, ~192 kbps
Субтитры: отсутствуют

Совместный релиз:


Список серий
Доп. информация: Правильный порядок серий не известен, поэтому нумерация серий отсутствует.
Добавленные серии
A Crack Shot / Меткий стрелок
A Day In The Museum / День в музее
A Private Eye in Bollywood / Частный детектив в Болливуде
Beware Rabbit / Берегись кролика
Be My Guest / Навязчивый гость
Christmas Turkey / Индейка на рождество
Free Birdy / Свободная птица
Follow The Rabbit / Длинноухие обжоры
Got You! / Попался!
Hanging On / Повисший
Kid In Love / Влюбленный малыш
Licence To Fill / Право на пломбу
Looking For My Cellphone / Как выбрать мобильник
Love At First Clap / Любовь с первого кадра
Pump It Up / Заправщик
Speed Dating / День свиданий
S.M.A.S.H. / Операция «Теннис»
Safari At The Park / Сафари в парке
Someone Like Me / Такой же, как ты
Tease Me If You Can / Дружеский розыгрыш
The Cable Guy / Кабельщик
The Casting Call / Кастинг
The Intruder / Грабитель
The King Of The Ring / Король ринга
The Laser Game / Игра с лазером
The Museum Guard / Музейный смотритель
The Opening Show / Великий художник
The Photo Booth / Моментальное фото
The Pressure Goes Up / Накалившаяся обстановка
The Runnaway House / Сбежавший дом
The Top Dog / Злой босс
Top Dog / Страшный пес
Unknown Address / Неизвестный адресс
Up to Par / Заигрались
Valet Parking / Парковщик

Список серий прежней раздачи
A Fistful Of Dust / Горсть пыли
A Stamped Out / В офисе
A Towed Ride / Приключение с эвакуатором
Bad Hair Day / День в парикмахерской
Beach Love / Пляжный роман
Bumping Into Trouble / На встречу неприятностям
Chaplin 2.0 / Чаплин. Версия 2.0
Dirty Pool / Грязная Лужа
Do Not Build It Yourself / Не делай сам
Driven / Экзамен по вождению
Forget Me Not / Незабудки
Love Burger / Любовный гамбургер
Mind The Back / Береги спину
Not Fast And Not Furious / Не быстрый и не яростный
Plastigeddon / Целлофановые войны
Poor Little Darling / Одинокая крошка
Refreshing / Освежитесь
Royal Shampooing / Шампунь по-королевски
Sidewalk TV / Уличный телевизор
Skate! / Все на скейт-борд!
Superstitious / Суеверие
Sushi Roll / Суши рол
Take My Picture / Фотограф
The Demonstration / Демонстрация
The Dunks Of Wrath / Бросок гнева
The Flying Gift / Летучий подарок
The Haunted House / Дом с приведениями
The Home Run / Уличный бейсбол
The Learning Permit / Письменный экзамен
The Meter Maid / Железная дама
The Music Lesson / Урок музыки
The Poker Champ / Покер
The Saleswoman / Продавщица
The Smell of Love / Запах любви
Unfair Competition / Нечестная конкуренция
Upside Down / Полёты над городом
Urban Paradise / Городской рай
Watch It! / Новый телевизор
Wiped Clean / Автомойщики
Скриншоты
pic pic pic pic pic
Отчет MI


GeneralComplete name : \Driven.CTC 0.aviFormat : AVIFormat/Info : Audio Video InterleaveFile size : 99.7 MiBDuration : 6mn 20sOverall bit rate : 2 195 KbpsMovie name : Driven.CTC 0Writing application : VirtualDubMod 1.5.10.3

VideoID : 0Format : MPEG-4 VisualFormat profile : Advanced Simple@L5Format settings, BVOP : 1Format settings, QPel : NoFormat settings, GMC : No warppointsFormat settings, Matrix : CustomCodec ID : XVIDCodec ID/Hint : XviDDuration : 6mn 20sBit rate : 1 993 KbpsWidth : 720 pixelsHeight : 400 pixelsDisplay aspect ratio : 16:9Frame rate : 25.000 fpsColor space : YUVChroma subsampling : 4:2:0Bit depth : 8 bitsScan type : ProgressiveCompression mode : LossyBits/(Pixel*Frame) : 0.277Stream size : 90.5 MiB (91%)Writing library : XviD 65

AudioID : 1Format : AC-3Format/Info : Audio Coding 3Mode extension : CM (complete main)Format settings, Endianness : BigCodec ID : 2000Duration : 6mn 20sBit rate mode : ConstantBit rate : 192 KbpsChannel(s) : 2 channelsChannel positions : Front: L RSampling rate : 48.0 KHzBit depth : 16 bitsCompression mode : LossyStream size : 8.72 MiB (9%)Alignment : Split accross interleavesInterleave, duration : 40 ms (1.00 video frame)Interleave, preload duration : 500 ms


Огромная благодарность xfiles за исходники

Этот торрент недоступен для скачивания без регистрации, однако доступен по публичной magnet-ссылке (источники с публичных трекеров). Перед использованием ссылки прочтите, пожалуйста Пользовательское соглашение, а также как можно дольше оставайтесь на раздаче! Для того, чтобы скачать сам торрент-файл (который видит больше источников), а также для того, чтобы поблагодарить релизера, вам необходимо зарегистрироваться. Если регистрироваться лень - вы можете также попробовать скачать релиз по нашим партнерским ссылкам ниже.

[underverse.su].t40109.torrent
Трекер: Зарегистрирован   [ 13.05.2014 06:31 ]  

Статус: % на проверке (by 90ytr90 at 13.05.2014 18:53)
Поблагодарили: пока никто не поблагодарил...
Тип торрента: публичный - доступные источники с открытых трекеров: 
Размер: 7,3 GB (занимает 1,67 DVDR, для записи нужно 2 болванки DVDR/RW)
 
 
Похожие темы
Форум Тема Автор Торрент Отв. Посл. сооб.
Зарубежное кино [DVDRip, Low-Res HDRip, и т.д.] Чаплин / Chaplin (Ричард Аттенборо / Richard Attenborough) [1992 г., драма, биография, BDRip] MVO 90ytr90
2 | 0

0 | 1713

6

18.11.2013 19:55

Зарубежное кино [DVDRip, Low-Res HDRip, и т.д.] Чаплин / Chaplin (Ричард Аттенборо / Richard Attenborough) [1992 г., драма, биография, HDRip] MVO 90ytr90
19 | 1

0 | 436

2

16.05.2016 18:36

Мультсериалы Чаплин / Chaplin and Co (Сирил Адам, Жульен Шарль / Cyril Adam, Julien Charles) [2011 г., комедия, мультсериал, SatRip] VO Чертёнок
0 | 0

0 | 1388

5

09.03.2013 21:42


Яндекс.Метрика powered by Sphinx


В Н И М А Н И Е
Сайт не распространяет и не хранит электронные версии произведений, а лишь бесплатно и без коммерческой выгоды (не требуя взамен платы,
SMS и т.д.) предоставляет доступ к создаваемому пользователями каталогу ссылок на торрент-файлы, которые содержат только списки хеш-сумм.
Убедительная просьба с жалобами обращаться напрямую к пользователю, разместившему торрент файл.

Вверх